<?xml version="1.0" standalone="no"?>
<!DOCTYPE svg PUBLIC "-//W3C//DTD SVG 1.1//EN" "http://www.w3.org/Graphics/SVG/1.1/DTD/svg11.dtd">
<svg xmlns="http://www.w3.org/2000/svg"><defs><font id="flaticon" horiz-adv-x="512"><font-face units-per-em="512" ascent="448" descent="-64" x-height="240" cap-height="480"/><missing-glyph horiz-adv-x="512"/><glyph unicode="&#xE000;" glyph-name="add122" horiz-adv-x="512" d="M256.00349874947 448C114.84295261655 448 0 333.15704738345 0 191.99650125053s114.84295261655 -255.99650125053 256.00349874947 -255.99650125053S512.00699749894 50.835955117604 512.00699749894 191.99650125053S397.1640448824 448 256.00349874947 448zM256.00349874947 -8.7897333570228c-110.70743074253 0 -200.75824461179 90.050813869262 -200.75824461179 200.78623460755c0 110.68643824571 90.050813869262 200.74424961391 200.75824461179 200.74424961391s200.75824461179 -90.050813869262 200.75824461179 -200.74424961391 C456.76174336126 81.261080512239 366.710929492 -8.7897333570228 256.00349874947 -8.7897333570228zM323.89323347319 219.57364457625h-40.263608905411v44.469105768837c0 15.212562697317 -12.371578127349 27.577143325725 -27.626125818311 27.577143325725 c-15.24055269308 0 -27.605133321489 -12.371578127349 -27.605133321489 -27.577143325725v-44.469105768837h-40.263608905411c-15.261545189903 0 -27.626125818311 -12.371578127349 -27.626125818311 -27.577143325725c0 -15.268542688844 12.371578127349 -27.633123317252 27.626125818311 -27.633123317252h40.263608905411v-36.10009703563 c0 -15.261545189903 12.371578127349 -27.626125818311 27.605133321489 -27.626125818311c15.261545189903 0 27.626125818311 12.371578127349 27.626125818311 27.626125818311v36.10009703563h40.263608905411c15.24055269308 0 27.605133321489 12.371578127349 27.605133321489 27.633123317252 C351.49836679468 207.20906394785 339.13378616627 219.57364457625 323.89323347319 219.57364457625z"/><glyph unicode="&#xE001;" glyph-name="add123" horiz-adv-x="512" d="M482.21164700898 369.84493433011h-43.391490931952V418.00172204075C438.82015607703 434.57879703153 425.48292309585 448 409.02480558707 448C392.58768057511 448 379.26444259181 434.57879703153 379.26444259181 418.00172204075v-48.156787710642h-43.419480927715 c-16.45112000984 0 -29.788352991021 -13.42120296847 -29.788352991021 -30.005275458186c0 -16.521094999248 13.337232981181 -29.942297967719 29.788352991021 -29.942297967719H379.26444259181v-39.165001571704c0 -16.521094999248 13.316240484358 -29.942297967719 29.760362995258 -29.942297967719 c16.458117508781 0 29.795350489962 13.42120296847 29.795350489962 29.942297967719v39.165001571704h43.391490931952c16.45112000984 0 29.795350489962 13.42120296847 29.795350489962 29.942297967719C512.00699749894 356.42373136164 498.66276701882 369.84493433011 482.21164700898 369.84493433011zM294.93758285613 63.746340663396c17.178859899684 25.771788598997 27.220270879744 56.742718911014 27.220270879744 90.043816370321c0 89.414041465648 -72.228184067023 162.10406046276 -161.08242561741 162.10406046276C72.270169060668 315.89421749648 0 243.20419849936 0 153.79015703372 c0 -89.365058973062 72.270169060668 -162.05507797018 161.08242561741 -162.05507797018c34.259754814197 0 66.021402506526 10.839125859312 92.150063551504 29.242548073638L328.9524252074 -55.211141330345c5.8149216198117 -5.8918941081606 13.42120296847 -8.7888586696552 21.055474312892 -8.7888586696552 s15.23355519414 2.8969645614946 21.055474312892 8.7328786781287c11.629843239623 11.741803222676 11.629843239623 30.691030354385 0 42.41883857918L294.93758285613 63.746340663396zM161.08242561741 51.626672497916c-55.965996528585 0 -101.51971463325 45.847613060176 -101.51971463325 102.1634845358 c0 56.371851467151 45.553718104662 102.15648703686 101.51971463325 102.15648703686c55.979991526466 0 101.53370963113 -45.784635569708 101.53370963113 -102.15648703686C262.60913774959 97.474285558092 217.06241714387 51.626672497916 161.08242561741 51.626672497916z"/><glyph unicode="&#xE002;" glyph-name="add127" horiz-adv-x="512" d="M482.32360699203 221.67989175744H285.68688925638V418.31660949309C285.68688925638 434.68375951564 272.39863876778 448 256.00349874947 448s-29.683390506909 -13.316240484358 -29.683390506909 -29.683390506909v-196.63671773565H29.683390506909 C13.295247987536 221.67989175744 0 208.37064877202 0 191.99650125053c0 -16.423130014077 13.295247987536 -29.683390506909 29.683390506909 -29.683390506909h196.63671773565v-196.62972023671c0 -16.430127513018 13.288250488595 -29.683390506909 29.683390506909 -29.683390506909 s29.683390506909 13.260260492832 29.683390506909 29.683390506909v196.62972023671h196.63671773565c16.395140018314 0 29.683390506909 13.267257991772 29.683390506909 29.683390506909C512.00699749894 208.37064877202 498.71874701035 221.67989175744 482.32360699203 221.67989175744z"/><glyph unicode="&#xE003;" glyph-name="advance6" horiz-adv-x="512" d="M249.92267216991 279.15734805724c-11.370935778813 10.209350954639 -28.815700638248 9.2576910986893 -38.997061597124 -2.1062471811833c-10.181360958876 -11.370935778813 -9.2366986018669 -28.787710642485 2.1062471811833 -39.004059096065l53.027046973445 -47.575995298555l-52.341292077246 -43.944293348276 c-11.68582323115 -9.8454810097172 -13.183288004483 -27.262255873389 -3.393786986292 -38.899096611953c5.4720441717121 -6.5286665117741 13.288250488595 -9.8944635023029 21.160436797004 -9.8944635023029c6.2837540488458 0 12.574505596632 2.1622271727098 17.759652311771 6.4726865202476l76.685590892318 64.418975249081 c6.129809072148 5.1571567193757 9.7125285298419 12.735448072271 9.8384835107764 20.740586860556s-3.211852013831 15.632412633766 -9.159726113518 20.999494321366L249.92267216991 279.15734805724zM255.99650125053 448C114.84295261655 448 0 333.15704738345 0 191.99650125053 s114.84295261655 -255.99650125053 255.99650125053 -255.99650125053c141.16054613293 0 256.00349874947 114.8359551176 256.00349874947 255.99650125053S397.15704738345 448 255.99650125053 448zM255.99650125053 -8.7897333570228 c-110.70043324359 0 -200.75824461179 90.050813869262 -200.75824461179 200.78623460755c0 110.67944074676 90.057811368202 200.74424961391 200.75824461179 200.74424961391c110.71442824147 0 200.76524211073 -90.057811368202 200.76524211073 -200.74424961391 C456.76174336126 81.261080512239 366.710929492 -8.7897333570228 255.99650125053 -8.7897333570228z"/><glyph unicode="&#xE004;" glyph-name="ascending14" horiz-adv-x="377" d="M190.53229465628 360.15459887932c-16.744786114528 0 -30.284761514282 -13.267076670767 -30.284761514282 -29.627005603389v-364.84460844608c0 -16.422905562389 13.546972803061 -29.682984829848 30.284761514282 -29.682984829848c16.709799097991 0 30.284761514282 13.267076670767 30.284761514282 29.682984829848 v364.84460844608C220.81705617056 346.89451961186 207.23509635096 360.15459887932 190.53229465628 360.15459887932zM30.291758917589 261.26029793631C13.560967609676 261.26029793631 0 247.94423944239 0 231.57731310646v-265.89432827662 c0 -16.422905562389 13.560967609676 -29.682984829848 30.291758917589 -29.682984829848c16.709799097991 0 30.26376930436 13.267076670767 30.26376930436 29.682984829848V231.57731310646C60.555528221949 247.94423944239 47.00155801558 261.26029793631 30.291758917589 261.26029793631zM346.97324039907 448 c-16.716796501298 0 -30.256771901052 -13.316058493918 -30.256771901052 -29.682984829848v-452.6340303403c0 -16.422905562389 13.546972803061 -29.682984829848 30.256771901052 -29.682984829848c16.744786114528 0 30.284761514282 13.267076670767 30.284761514282 29.682984829848V418.31701517015 C377.25800191335 434.68394150608 363.7180265136 448 346.97324039907 448z"/><glyph unicode="&#xE005;" glyph-name="black364" horiz-adv-x="404" d="M393.65829791305 318.99410952726L271.6289138843 437.73466905383C264.87632740642 444.31931555713 255.7166012929 448 246.16501523869 448H90.239746340663C40.501523869398 448 0 408.63207095901 0 360.20937828862v-336.42575407618 c0 -48.415695171452 40.501523869398 -87.78362421244 90.239746340663 -87.78362421244H313.97777747407c49.759214968088 0 90.232748841723 39.367929040987 90.232748841723 87.78362421244V294.2579507715C404.21052631579 303.52963686807 400.42487938881 312.4164605229 393.65829791305 318.99410952726 z"/><glyph unicode="&#xE006;" glyph-name="blocked6" horiz-adv-x="512" d="M255.99650125053 448C114.84295261655 448 0 333.15704738345 0 191.99650125053s114.84295261655 -255.99650125053 255.99650125053 -255.99650125053c141.16054613293 0 256.00349874947 114.8359551176 256.00349874947 255.99650125053 S397.15704738345 448 255.99650125053 448zM55.23825663874 191.99650125053c0 110.68643824571 90.057811368202 200.74424961391 200.75824461179 200.74424961391c48.093810220175 0 92.283016031379 -17.010919925105 126.89264579262 -45.308805641734 c-1.8193497246101 -1.1126023315885 -3.5547294619306 -2.3931446377564 -5.1221692246717 -3.9605844004975L100.04324235674 65.726632863644C72.053246593503 100.25229263759 55.23825663874 144.18259098799 55.23825663874 191.99650125053zM255.99650125053 -8.7897333570228 c-43.013625989148 0 -82.885374953874 13.645122934576 -115.59868250215 36.771856933947l276.41520315981 276.44319315557c1.1056048326477 1.1056048326477 2.0222771938936 2.3161721494075 2.9039620604354 3.5547294619306c23.28767647501 -32.790280036628 37.044759392639 -72.787983982288 37.044759392639 -115.97654744496 C456.76174336126 81.261080512239 366.710929492 -8.7897333570228 255.99650125053 -8.7897333570228z"/><glyph unicode="&#xE007;" glyph-name="bookmark22" horiz-adv-x="296" d="M296.07817518348 -28.795582828794L295.92423020678 417.30896964561C295.92423020678 434.25691208025 281.712309858 448 264.16258251445 448H31.76864519127C23.343656466536 448 15.261545189903 444.73216799464 9.3136710902158 439.00121636212 C3.3448044937064 433.26326723066 0 425.4680534106 0 417.30896964561l0.027989995763233 -422.4739985513l0.18193497246101 -28.367860706037c0.083969987289699 -12.056690675013 7.4733288687832 -22.94479902691 18.893247140182 -27.843048285476c4.1355218740177 -1.7913597288469 8.501961213082 -2.6310596017439 12.868400552146 -2.6310596017439 c7.6832538370075 0 15.24055269308 2.6800420943296 21.181429293827 7.7882163211196l91.030463720975 78.735858081975l99.966269868387 -79.526575462286c5.7939291229892 -4.6323442988151 12.959368038377 -6.9974989408083 20.187784444232 -6.9974989408083h0.31488745233637c17.563722341429 0 31.76864519127 13.736090420807 31.76864519127 30.628052863918 C296.42105263158 -31.79051237546 296.32308764641 -30.272055105304 296.07817518348 -28.795582828794zM232.40093482212 31.83774549331l-68.869384575435 54.790416706529c-5.9058891060422 4.6253467998743 -13.057333023548 6.9974989408083 -20.215774439995 6.9974989408083 c-7.5852888518362 0 -15.156582705791 -2.6310596017439 -21.181429293827 -7.8371988137053l-58.576063633506 -50.633902335689L63.530292883598 386.62493679017h168.87064193853V31.83774549331z"/><glyph unicode="&#xE008;" glyph-name="bookmark24" horiz-adv-x="313" d="M312.52696269367 -28.782365330794L312.36446521827 417.33229464208C312.36446521827 434.27634957731 297.33344874347 448 278.80873654751 448H33.526183675236C24.640526270233 448 16.116795060446 444.77220923858 9.8310972618945 438.99616261289 C3.5306269655789 433.27920597825 0 425.44239591448 0 417.33229464208v-422.49343604836l0.22158746645893 -28.392740702271c0.088634986583571 -12.061744424248 7.8885138059379 -22.941689027381 19.942871981304 -27.838772036123c4.3652730892409 -1.7800859805534 9.0038373871145 -2.6147321042154 13.583311693932 -2.6147321042154 c8.0879425257509 0 16.116795060446 2.6664358463891 22.358175365706 7.8368100637641l96.058166709945 78.66355059292L257.69883724285 -56.997836059898c6.1379728209123 -4.6164055512277 13.694105427162 -7.0021639401021 21.331486771113 -7.0021639401021h0.33976744857036 c18.502553449321 0 33.526183675236 13.716264173808 33.526183675236 30.660319109034C312.88888888889 -31.781182376872 312.78548140454 -30.281773853833 312.52696269367 -28.782365330794z"/><glyph unicode="&#xE009;" glyph-name="checkmark8" horiz-adv-x="644" d="M626.06650332517 441.27070353518c-18.709415470774 12.338536926846 -43.977878893945 7.2131606580329 -56.42394119706 -11.254322716136L302.23591179559 31.518375918796L62.76793839692 183.62198109905c-18.969268463423 11.989079453973 -44.112285614281 6.5321666083304 -56.307455372769 -12.069723486174 c-12.132446622331 -18.736296814841 -6.6755337766888 -43.601540077004 12.231011550578 -55.599579978999l273.24886244312 -173.61764088204c3.306405320266 -2.0877843892195 6.8278613930697 -3.6289814490725 10.421001050053 -4.668393419671c0.017920896044802 -0.0089604480224011 0.035841792089604 -0.017920896044802 0.044802240112006 -0.017920896044802 c1.7024851242562 -0.49282464123206 3.4318515925796 -0.85124256212811 5.161218060903 -1.1200560028001c0.19712985649282 -0.026881344067203 0.39425971298565 -0.089604480224011 0.59138956947847 -0.12544627231362c1.9175358767938 -0.25985299264963 3.8440322016101 -0.40322016100805 5.7615680784039 -0.40322016100805 c1.6666433321666 0 3.306405320266 0.10752537626881 4.9551277563878 0.29569478473924c1.3082254112706 0.16128806440322 2.6164508225411 0.43010150507525 3.9067553377669 0.70787539376969c0.31361568078404 0.071683584179209 0.62723136156808 0.098564928246412 0.93188659432972 0.17024851242562 c4.7669583479174 1.1558977948897 9.3188659432972 3.17199859993 13.413790689534 5.9676583829191c0.026881344067203 0.017920896044802 0.053762688134407 0.026881344067203 0.071683584179209 0.044802240112006c1.1738186909345 0.7974798739937 2.2849142457123 1.6935246762338 3.3780889044452 2.6343717185859 c0.19712985649282 0.17920896044802 0.42114105705285 0.31361568078404 0.61827091354568 0.49282464123206c0.86020301015051 0.7705985299265 1.6487224361218 1.6128806440322 2.4372418620931 2.4551627581379c0.40322016100805 0.42114105705285 0.8333216660833 0.8064403220161 1.2096604830242 1.2544627231362 c0.56450822541127 0.64515225761288 1.0662933146657 1.361988099405 1.5949597479874 2.0519425971299c0.49282464123206 0.64515225761288 1.0214910745537 1.2455022751138 1.4784739236962 1.9264963248162l289.59271963598 431.53517675884C649.95505775289 404.07588379419 644.82968148407 429.00385019251 626.06650332517 441.27070353518z"/><glyph unicode="&#xE00A;" glyph-name="circle87" horiz-adv-x="512" d="M256.00349874947 448C114.8359551176 448 0 333.15704738345 0 192.00349874947c0 -141.16054613293 114.8359551176 -256.00349874947 256.00349874947 -256.00349874947c141.15354863398 0 255.99650125053 114.84295261655 255.99650125053 256.00349874947 C512 333.15704738345 397.15704738345 448 256.00349874947 448zM256.00349874947 -8.7897333570228c-110.71442824147 0 -200.76524211073 90.050813869262 -200.76524211073 200.79323210649c0 110.67944074676 90.050813869262 200.73725211497 200.76524211073 200.73725211497 c110.70043324359 0 200.75124711285 -90.050813869262 200.75124711285 -200.73725211497C456.75474586232 81.261080512239 366.70393199306 -8.7897333570228 256.00349874947 -8.7897333570228zM323.52236602933 263.68587789911c-10.762153370963 10.783145867786 -28.262898221925 10.783145867786 -39.053041588651 0 l-31.418770244229 -31.418770244229l-28.465825691208 28.465825691208c-10.769150869904 10.790143366726 -28.262898221925 10.790143366726 -39.060039087592 0c-10.783145867786 -10.783145867786 -10.783145867786 -28.262898221925 0 -39.04604408971l28.472823190149 -28.472823190149l-25.519878637128 -25.526876136069 c-10.790143366726 -10.790143366726 -10.790143366726 -28.262898221925 0 -39.053041588651c5.3950716833632 -5.4160641801856 12.46954311252 -8.103103773456 19.523022044855 -8.103103773456c7.081468928098 0 14.134947860433 2.6870395932704 19.523022044855 8.103103773456l25.526876136069 25.526876136069l28.472823190149 -28.472823190149 c5.3950716833632 -5.4160641801856 12.46954311252 -8.103103773456 19.523022044855 -8.103103773456c7.081468928098 0 14.134947860433 2.6870395932704 19.530019543796 8.103103773456c10.783145867786 10.790143366726 10.783145867786 28.262898221925 0 39.053041588651l-28.472823190149 28.472823190149l31.418770244229 31.418770244229 C334.31250939606 235.42297967719 334.31250939606 252.89573453238 323.52236602933 263.68587789911z"/><glyph unicode="&#xE00B;" glyph-name="circle88" horiz-adv-x="512" d="M256.00349874947 448c-1.2595498093455 0 -2.4841121239869 -0.076972488348891 -3.7366644343916 -0.097964985171316C251.9449493638 447.91603001271 251.64405690935 448 251.32217195807 448c-0.53880741844224 0 -1.0426273421804 -0.13295247987536 -1.5744372616819 -0.15394497669778 C111.47715562602 444.49425303066 0 331.05779770121 0 191.99650125053c0 -141.16054613293 114.84295261655 -255.99650125053 256.00349874947 -255.99650125053S512.00699749894 50.835955117604 512.00699749894 191.99650125053S397.1640448824 448 256.00349874947 448zM283.60863207096 -6.8444286514781v61.948858122976c0 15.268542688844 -12.371578127349 27.633123317252 -27.605133321489 27.633123317252c-15.261545189903 0 -27.626125818311 -12.371578127349 -27.626125818311 -27.633123317252v-61.948858122976 C139.76104634476 5.415189492818 69.443179488581 75.712063852178 57.190558843226 164.37037543222h50.969782284847c15.24055269308 0 27.605133321489 12.371578127349 27.605133321489 27.626125818311c0 15.268542688844 -12.371578127349 27.577143325725 -27.605133321489 27.577143325725H57.183561344285 C69.212262023535 306.65751889461 137.28393171972 376.06571088849 223.71703863658 390.10969126269v-50.270032390767c0 -15.268542688844 12.343588131586 -27.626125818311 27.605133321489 -27.626125818311c15.261545189903 0 27.598135822548 12.364580628408 27.598135822548 27.626125818311V391.39023356886 c90.855526247455 -10.377290929219 163.44058276046 -81.611830146647 175.90312837404 -171.81658899261h-55.637114078367c-15.261545189903 0 -27.626125818311 -12.315598135823 -27.626125818311 -27.577143325725c0 -15.261545189903 12.371578127349 -27.626125818311 27.626125818311 -27.626125818311h55.630116579426 C442.56381801036 75.705066353237 372.25994615206 5.4011944949364 283.60863207096 -6.8444286514781zM255.3737238448 236.83647446323c-24.792138747284 0 -44.895953204226 -20.047834465416 -44.895953204226 -44.839973212699s20.103814456942 -44.895953204226 44.895953204226 -44.895953204226 c24.75715125258 0 44.867963208463 20.103814456942 44.867963208463 44.895953204226S280.13087509738 236.83647446323 255.3737238448 236.83647446323z"/><glyph unicode="&#xE00C;" glyph-name="cloud238" horiz-adv-x="529" d="M447.93768608802 221.18458520891c-13.1491385271 85.751167680303 -87.485120013546 151.66303074774 -176.93538600477 151.66303074774c-71.83620020602 0 -135.25550679442 -41.961646464504 -163.67065065545 -106.29127802785C46.513271339269 256.34046876543 0 203.36100018344 0 139.72494955339 c0 -70.904200826901 57.71171349147 -128.56534070865 128.68093753087 -128.56534070865h295.47992718755c56.627993283192 0 104.46340327656 49.612711134943 104.46340327656 108.29254801247C528.62426799498 168.90592236161 494.12584136481 210.37628233169 447.93768608802 221.18458520891z"/><glyph unicode="&#xE00D;" glyph-name="console6" horiz-adv-x="572" d="M533.35027799841 308.97293334148V414.4104600721C533.35027799841 432.93749618134 518.35033909696 448 499.81548237307 448c-18.495753650638 0 -33.495692552087 -15.062503818659 -33.495692552087 -33.589539927904v-105.42970611597 c-23.094275065681 -12.098490865766 -38.884096046924 -36.279831367997 -38.884096046924 -64.215066902914s15.789820981243 -52.140037881102 38.884096046924 -64.254169976172v-210.92197714914c0 -18.589601026456 14.999938901448 -33.589539927904 33.495692552087 -33.589539927904 c18.534856723896 0 33.534795625344 14.999938901448 33.534795625344 33.589539927904V180.5193376917c23.102095680332 12.114132095069 38.884096046924 36.318934441254 38.884096046924 64.24634936152S556.45237367874 296.86662186106 533.35027799841 308.97293334148zM105.91458422435 351.01655770758V414.4104600721 C105.91458422435 432.93749618134 90.914645322906 448 72.387609213662 448C53.891855563023 448 38.891916661575 432.93749618134 38.891916661575 414.4104600721V351.02437832223C15.789820981243 338.91024622716 0 314.69762326633 0 286.77020834606 c0 -27.943056149569 15.789820981243 -52.147858495754 38.891916661575 -64.261990590823v-252.91867782734c0 -18.589601026456 14.999938901448 -33.589539927904 33.495692552087 -33.589539927904c18.527036109244 0 33.526975010692 14.999938901448 33.526975010692 33.589539927904V222.51603836989 c23.102095680332 12.114132095069 38.884096046924 36.318934441254 38.884096046924 64.254169976172C144.79868027128 314.68980265168 129.01667990469 338.90242561251 105.91458422435 351.01655770758zM323.06177063604 191.31178591067V414.4104600721 C323.06177063604 432.93749618134 308.06183173459 448 289.52697501069 448c-18.495753650638 0 -33.526975010692 -15.062503818659 -33.526975010692 -33.589539927904v-223.10649477607c-23.08645445103 -12.114132095069 -38.860634202969 -36.318934441254 -38.860634202969 -64.24634936152 c0 -27.919594305615 15.77417975194 -52.085293578542 38.860634202969 -64.19160505896v-93.276470947639c0 -18.589601026456 15.031221360054 -33.589539927904 33.526975010692 -33.589539927904c18.527036109244 0 33.526975010692 14.999938901448 33.526975010692 33.589539927904V62.858190260891 c23.102095680332 12.098490865766 38.884096046924 36.279831367997 38.884096046924 64.199425673612C361.93804606831 154.99285146942 346.16386631637 179.1976538156 323.06177063604 191.31178591067z"/><glyph unicode="&#xE00E;" glyph-name="contrast15" horiz-adv-x="498" d="M249.05534353774 448C111.71409283165 448 0 333.13277213673 0 191.99647300332c0 -141.17862309356 111.71409283165 -255.99647300332 249.05534353774 -255.99647300332c137.30598073929 0 249.02007357095 114.81784990976 249.02007357095 255.99647300332 C498.06836311533 333.13277213673 386.35427028368 448 249.05534353774 448zM53.716159431272 191.99647300332c0 110.67715580783 87.624705509555 200.77075899315 195.33213011311 200.77075899315c56.135679153521 0 106.78335147349 -24.526734910378 142.43423391152 -63.648182081204 L115.65022112616 45.527354890264C77.572764972514 82.186958378684 53.716159431272 134.25248336387 53.716159431272 191.99647300332z"/><glyph unicode="&#xE00F;" glyph-name="credit78" horiz-adv-x="529" d="M444.04351813961 358.93264848237H84.580749855363C37.930207289712 358.93264848237 0 322.25233183287 0 277.14789676436v-170.35359193983c0 -45.032187054623 37.930207289712 -81.726953306899 84.580749855363 -81.726953306899h359.46276828425 c46.650542565651 0 84.580749855363 36.687541450887 84.580749855363 81.726953306899V277.14789676436C528.62426799498 322.25233183287 490.69406070526 358.93264848237 444.04351813961 358.93264848237zM84.580749855363 304.4287468074h359.46276828425 c15.533322985311 0 28.205624620768 -12.22436394937 28.205624620768 -27.280850043038v-31.514583656709H56.375125234594v31.514583656709C56.375125234594 292.20438285803 69.040202068664 304.4287468074 84.580749855363 304.4287468074zM444.04351813961 79.564028391212H84.580749855363 c-15.540547786699 0 -28.205624620768 12.217139147981 -28.205624620768 27.237501234707V191.1221866313h415.87401752579v-84.335106608153C472.24914276038 91.788392340582 459.57684112492 79.564028391212 444.04351813961 79.564028391212z"/><glyph unicode="&#xE010;" glyph-name="cross68" horiz-adv-x="508" d="M310.27140771752 191.98589803619l186.21643209298 187.63367945575c15.533313135208 15.646128845677 15.533313135208 40.994408791693 0 56.64053763737c-15.519211171399 15.646128845677 -40.684165587903 15.646128845677 -56.189274795494 0L254.06803095822 248.61938469166L67.837496901424 436.26716611122 c-15.505109207591 15.646128845677 -40.684165587903 15.646128845677 -56.189274795494 0c-15.540364117112 -15.646128845677 -15.540364117112 -40.994408791693 0 -56.64053763737l186.21643209298 -187.63367945575l-186.21643209298 -187.62662847385c-15.540364117112 -15.646128845677 -15.540364117112 -40.994408791693 0 -56.64053763737 c7.7419781309389 -7.8477428595037 17.923596000771 -11.718731924973 28.105213870603 -11.718731924973c10.153413942215 0 20.342082793952 3.8709890654695 28.077009942986 11.718731924973L254.06803095822 135.35946236263l186.23053405679 -187.64073043766 c7.7419781309389 -7.8477428595037 17.916545018867 -11.718731924973 28.105213870603 -11.718731924973c10.146362960311 0 20.335031812047 3.8709890654695 28.077009942986 11.718731924973c15.533313135208 15.646128845677 15.533313135208 40.994408791693 0 56.64053763737L310.27140771752 191.98589803619z"/><glyph unicode="&#xE011;" glyph-name="dark52" horiz-adv-x="539" d="M295.84033576959 444.46538823359c-9.8035458426804 5.1870612924235 -21.711556552573 4.6313047253781 -30.959345828208 -1.5042477748028L106.53482885882 338.52336637962h-16.020609306028C40.599869744555 338.52336637962 0 298.33846153846 0 248.89835733411v-114.4191620233 c0 -49.440104204356 40.599869744555 -89.625009045517 90.51421955279 -89.625009045517h16.05024965627l158.37580143281 -103.89683768724c5.046269628772 -3.282668789348 10.840958101165 -4.9573485780447 16.65787683624 -4.9573485780447c4.9054779651205 0 9.810955930241 1.1707938345756 14.271828641725 3.564252116651 c9.810955930241 5.1796512048629 15.916868080179 15.272190462407 15.916868080179 26.305810840148V418.10770678052C311.78684420001 429.14132715826 305.65129169983 439.22645632824 295.84033576959 444.46538823359zM539.23948187278 202.19257543961 c-4.5053332368478 82.763267964397 -70.699645415732 136.37525146537 -73.515478688762 138.6649685216c-12.952833055937 10.314841884362 -31.796685722556 8.2474274549533 -42.274549533251 -4.4608727114842c-10.477863810695 -12.812041392286 -8.4919603444533 -31.60402344598 4.3200810478327 -42.022606556191 c0.49647586656053 -0.39273464071206 48.432332296114 -39.910731601418 51.225935306462 -95.864302771546c1.83770171503 -36.731804037919 -16.16881105724 -74.071235255807 -53.537882625371 -111.02534192054c-11.767219046241 -11.648657645271 -11.767219046241 -30.544380924814 0 -42.193038570085 c5.9058397858022 -5.8465590853173 13.619740936392 -8.7439033215139 21.348462262103 -8.7439033215139c7.7139011505898 0 15.43521238874 2.8973442361965 21.31882191186 8.7439033215139C518.28375425139 94.909327737173 542.19610680947 147.6839713438 539.23948187278 202.19257543961z"/><glyph unicode="&#xE012;" glyph-name="download114" horiz-adv-x="540" d="M509.00118295392 -0.61121209498254H31.443261490522C14.078190369024 -0.61121209498254 0 -14.77803745059 0 -32.335151043019c0 -17.498023601373 14.078190369024 -31.664848956981 31.443261490522 -31.664848956981h477.5579214634 c17.365071121498 0 31.443261490522 14.166825355607 31.443261490522 31.664848956981C540.44444444444 -14.77803745059 526.36625407542 -0.61121209498254 509.00118295392 -0.61121209498254zM241.70022216452 82.114775383017 c5.8572953633977 -7.0021639401021 14.44011656424 -11.116304567356 23.547361435702 -11.278802042759h0.52442367061946c8.9152024005309 0 17.4463198592 3.8334631697395 23.421795204709 10.554949652327L424.63544822413 233.50333246776c8.3907787299114 9.4396260711504 10.385065928042 22.993392769555 5.1112842263193 34.552872269829 c-5.3107129461323 11.5077757581 -17.003144926282 18.620733431432 -29.471133039037 18.332669725035l-38.194292968637 -1.1670273233504V416.27606105196C362.08130644277 433.77408465334 348.00311607375 448 330.63804495225 448H209.13425084394 c-8.3316887388557 0 -16.330996278023 -3.3311982457659 -22.247381632476 -9.2771285957471c-5.8942266078075 -5.9459303499812 -9.2254248535734 -14.056031622378 -9.2254248535734 -22.446810352289l0.029544995527857 -131.05421391269l-37.832366773421 1.1670273233504 c-12.33503563288 0.33238119968839 -23.857583888745 -6.6623964915318 -29.249545572579 -17.889494792117c-5.4141204304798 -11.227098300586 -3.7522144320379 -24.670071265761 4.2175481116016 -34.227877319022L241.70022216452 82.114775383017z"/><glyph unicode="&#xE013;" glyph-name="earth196" horiz-adv-x="516" d="M257.97679345078 448C115.73863248097 448 0 333.15704738345 0 191.99650125053s115.73863248097 -255.99650125053 257.97679345078 -255.99650125053c142.23116347087 0 257.96979595184 114.8359551176 257.96979595184 255.99650125053S400.20795692165 448 257.97679345078 448 zM70.541786822288 116.52847517391c25.505883639246 0.28689745657314 56.070959012697 11.34294578305 70.408834342413 32.363432601238c8.7398761770695 12.791428063798 9.3206685891566 25.372931159371 7.7112438327707 40.263608905411c-1.2595498093455 11.790785715262 12.791428063798 25.946726072517 17.3188098785 36.421981986907 c13.708100425043 31.845617679618 1.6724022468532 110.23859831349 -36.435976984789 121.39261162514c34.959504708278 28.584783173202 79.722505432629 45.770640571827 128.43909305854 45.770640571827c23.763506402985 0 46.582350448961 -4.1215268761361 67.79176973855 -11.629843239623 c-27.073323401987 -33.378069947655 -51.676529677869 -54.636471729831 -59.261818529705 -103.6889393049c-2.7430195847968 -17.633697330837 -0.4268474353893 -40.312591397996 9.5725785510257 -55.791059055064c12.392570624171 -19.208134592519 55.742076562479 -53.41890691413 51.760499665159 -76.79055337643 c-8.5859312003717 -50.458964862168 20.880536839372 -100.42110729954 62.109800598614 -104.83652913119c-35.456327133075 -30.369145403108 -81.569845153002 -48.793560114256 -131.97283002364 -48.793560114256C173.31405376594 -8.7897333570228 100.66601976247 43.110716286952 70.541786822288 116.52847517391z"/><glyph unicode="&#xE014;" glyph-name="edit39" horiz-adv-x="513" d="M504.24501283967 348.72279368027L414.59468713276 439.28678166756c-11.476489619452 11.617624443252 -30.08400191507 11.617624443252 -41.538207088659 0l-296.53169295051 -299.58466203375L57.419588840367 120.15123246333 c-2.9341187052969 -3.015828340128 -5.1922758860824 -6.5961959754523 -6.6556211644203 -10.562827339069L1.8273245607672 -23.991991527268c-3.8774935801645 -10.622252528037 -1.47820157558 -22.514718470266 6.202504098539 -30.730250845097c5.6453929519637 -6.0316566802559 13.385523815051 -9.277757627635 21.341070988147 -9.277757627635 c2.8821216649499 0 5.8088122216258 0.39369187691326 8.6315086976076 1.2850697114338l138.58696882209 43.075833853207c4.664877333991 1.4484889810959 8.8543531562378 4.0260565525846 12.286157819142 7.4875738099729l315.36204970476 318.92013289422 c5.5042581281646 5.5859677629956 8.6017961031236 13.132966761937 8.6017961031236 21.006804300202S509.74927096784 343.18882295762 504.24501283967 348.72279368027zM152.26219043336 34.898370740058l-74.704890681446 -23.190679994777l26.124798700074 71.295370464404l15.279701713407 15.443120983069 l47.993268240312 -48.483526049299l-0.80224005106852 -0.80966819968953L152.26219043336 34.898370740058zM187.70931565279 70.917463403311l-47.993268240312 48.498382346541L393.82558358843 376.3183658073l48.104690469627 -48.542951238267L187.70931565279 70.917463403311z"/><glyph unicode="&#xE015;" glyph-name="envelope39" horiz-adv-x="529" d="M444.04351813961 400.67032610383H84.580749855363C37.930207289712 400.67032610383 0 361.21568572114 0 312.80229161669v-241.59735843199c0 -48.471192515557 37.930207289712 -87.868034487138 84.580749855363 -87.868034487138h359.46276828425 c19.514188550383 0 37.467820000847 6.9719333399184 51.772926750109 18.524390760156c0.19506963748995 0.15172082915885 0.42626328192247 0.26731765137511 0.62133291941242 0.44071288469951c0.057798411108132 0.057798411108132 0.10114721943923 0.11559682221626 0.14449602777033 0.15172082915885 c19.499738947606 16.104082295003 32.063668562236 40.906825461781 32.063668562236 68.7656596159V312.80951641808C528.62426799498 361.21568572114 490.69406070526 400.67032610383 444.04351813961 400.67032610383zM56.382350035983 307.10192332115l105.39540265568 -91.617706407778L56.382350035983 83.472645942399 V307.10192332115zM260.4035164463 206.12809911524L104.0010159877 342.09163644574h319.61076382519L260.4035164463 206.12809911524zM205.02541380332 177.89357528892l36.904285492542 -32.070893363625c5.2379810066745 -4.5155008678228 11.653604639677 -6.784088503817 18.090902676845 -6.784088503817 c6.2205539955127 0 12.477231997968 2.1168668068353 17.635740189369 6.4156236330027l41.390887154811 34.476752226001c0.7875033513483 -1.4738594832574 1.6761539221358 -2.9188197609607 2.7526493290248 -4.2770824220018l106.49357246673 -133.74552330422h-331.83512777456L205.02541380332 177.89357528892zM365.26428379923 212.97721083156c-0.88865057078753 1.105394612443 -1.9217971693454 2.0446187929502 -2.9188197609607 2.9910677748458l109.91812832489 91.545458393893v-228.93228159792L365.26428379923 212.97721083156z"/><glyph unicode="&#xE016;" glyph-name="favorite14" horiz-adv-x="565" d="M563.71170336037 254.77636152955c-4.6053302433372 13.393279258401 -17.768713789108 22.418539976825 -32.630359212051 22.418539976825h-164.85747392816L315.29826187717 425.57404403244C310.69293163384 438.90057937428 297.55921205098 448 282.69015063731 448 s-28.002780996524 -9.0994206257242 -32.600695249131 -22.425955967555l-50.95527230591 -148.37172653534H34.306373117034c-14.869061413673 0 -28.025028968714 -9.0326767091541 -32.630359212051 -22.418539976825c-4.5756662804171 -13.393279258401 0.45237543453071 -28.002780996524 12.473696407879 -36.264194669757L147.51147161066 126.8134414832 L96.556199304751 -21.550869061414c-4.5682502896871 -13.385863267671 0.45237543453071 -27.995365005794 12.49594438007 -36.256778679027c11.991657010429 -8.2539976825029 28.284588644264 -8.2539976825029 40.276245654693 0L282.69015063731 33.891077636153l133.3617612978 -91.698725376593 c5.9995365005794 -4.1307068366165 13.08180764774 -6.1923522595597 20.141830822711 -6.1923522595597c7.0822711471611 0 14.164542294322 2.0616454229432 20.164078794902 6.1923522595597c12.021320973349 8.2539976825029 17.041946697567 22.870915411356 12.466280417149 36.256778679027l-50.94785631518 148.37172653534 l133.3617612978 91.698725376593C563.25932792584 226.77358053302 568.27995365006 241.39049826188 563.71170336037 254.77636152955z"/><glyph unicode="&#xE017;" glyph-name="file54" horiz-adv-x="377" d="M367.42467438396 318.99410952726L253.49839412866 437.73466905383C247.20764258087 444.31931555713 238.64970137627 448 229.76287772144 448H84.228894750509C37.786494280365 448 0 408.57609096749 0 360.20937828862v-336.42575407618 c0 -48.415695171452 37.786494280365 -87.78362421244 84.228894750509 -87.78362421244h208.8193633916c46.456395468026 0 84.214899752627 39.367929040987 84.214899752627 87.78362421244V294.20197077998C377.26315789474 303.52963686807 373.70842843281 312.4164605229 367.42467438396 318.99410952726zM310.05218056827 23.78362421244c0 -9.78250351925 -7.627273845481 -17.731662316008 -17.003922426164 -17.731662316008H84.228894750509c-9.3626535828015 0 -17.024914922987 7.9491587967582 -17.024914922987 17.731662316008V360.20937828862c0 9.7405185256051 7.6622613401851 17.731662316008 17.024914922987 17.731662316008 h131.61595757766l94.207328240102 -98.25888012683V23.78362421244zM106.02610395113 205.15879675819c0 -19.376074567098 15.044622722738 -35.057469693449 33.601989913761 -35.057469693449h97.99997266602c18.550369692083 0 33.608987412702 15.681395126351 33.608987412702 35.057469693449 c0 19.313097076631 -15.051620221679 34.994492202982 -33.608987412702 34.994492202982H139.62809386489C121.07772417281 240.15328896117 106.02610395113 224.47189383482 106.02610395113 205.15879675819zM237.62806653091 126.31097869316H139.62809386489 c-18.550369692083 0 -33.601989913761 -15.681395126351 -33.601989913761 -35.057469693449c0 -19.313097076631 15.044622722738 -34.994492202982 33.601989913761 -34.994492202982h97.99997266602c18.550369692083 0 33.608987412702 15.681395126351 33.608987412702 34.994492202982 C271.23705394361 110.62958356681 256.17843622299 126.31097869316 237.62806653091 126.31097869316z"/><glyph unicode="&#xE018;" glyph-name="flag45" horiz-adv-x="341" d="M310.76609562845 439.98995511553C207.52962230657 474.19521136111 152.4347010348 386.66847551559 55.700847176319 404.42506025487C50.136673930927 412.30209701396 41.040396022457 417.47463522348 30.7027089437 417.47463522348 c-8.4755733233269 0 -16.167876574925 -3.4656006003839 -21.717271139719 -9.066720547273C7.6331885292038 407.28473495071 6.4878407828082 405.92509633564 5.5937306065898 404.27727344889C2.0911833047093 399.25252204535 0 393.171094979 0 386.579803432v-419.72930768232 c0 -17.069376091443 13.751562297046 -30.850495749686 30.7027089437 -30.850495749686c16.958535986953 0 30.710098283999 13.781119658243 30.710098283999 30.850495749686V156.73437342147c93.216527875998 -13.396873962678 148.17105168209 69.954884613719 249.34589906046 36.429447675677 c16.958535986953 -5.6158986274878 30.710098283999 -1.1675157672935 30.710098283999 15.842745601755V394.13909855821C341.47619391245 411.20108530936 327.72463161541 434.37405648804 310.76609562845 439.98995511553z"/><glyph unicode="&#xE019;" glyph-name="flag46" horiz-adv-x="350" d="M328.65853025188 438.42042395003C308.78563325999 444.89311047028 289.50052617912 448 269.71159917451 448c-40.130656425535 0 -74.348426246088 -13.42120296847 -104.52863917779 -25.218986182673c-27.346225860679 -10.7341633752 -53.194986948024 -20.845549344668 -81.191980210198 -20.845549344668 c-9.1527286145772 0 -18.256474736569 1.1126023315885 -27.549153329962 3.2748295042983C50.696879826156 412.58565786057 41.712091186158 417.42092962867 31.495742732578 417.42092962867C14.106957864669 417.42092962867 0 403.62885921633 0 386.57595429759v-419.7309789665 c0 -17.059902417691 14.106957864669 -30.837977832142 31.495742732578 -30.837977832142c17.395782366849 0 31.502740231519 13.785072913392 31.502740231519 30.837977832142V156.49818912381c6.969508945045 -0.79771487925214 13.953012887972 -1.3365222976944 20.999494321366 -1.3365222976944 c40.158646421299 0 74.36941874291 13.42120296847 104.57762167038 25.211988683732c27.311238365975 10.7341633752 53.132009457557 20.845549344668 81.136000218672 20.845549344668c12.973363036259 0 25.792781095819 -2.1062471811833 39.234976561112 -6.4726865202476 c9.5795760499665 -3.1068895297189 20.131804452705 -1.4764722765105 28.318878213451 4.3104593475379c8.2080662575681 5.7869316240484 13.050335524607 15.107600213205 13.050335524607 25.002063715508V409.15688337957C350.31578947368 422.47312386393 341.59690579344 434.25691208025 328.65853025188 438.42042395003zM287.31730650959 262.04846314696c-5.8639041123973 0.58079241208709 -11.713813226913 0.8466973718378 -17.605707335074 0.8466973718378c-40.130656425535 0 -74.348426246088 -13.42120296847 -104.52863917779 -25.218986182673c-33.084174992141 -12.945373040495 -64.796840191885 -24.575216280119 -98.790690046331 -19.523022044855 v122.94605639c5.8429116155749 -0.58079241208709 11.706815727972 -0.83969987289699 17.605707335074 -0.83969987289699c40.158646421299 0 74.36941874291 13.42120296847 104.57762167038 25.211988683732c33.084174992141 12.952370539436 64.761852697181 24.526233787533 98.734710054805 19.523022044855V262.04846314696z"/><glyph unicode="&#xE01A;" glyph-name="four78" horiz-adv-x="540" d="M208.75317743122 448H15.193733139057C6.8028333597819 448 0 441.38921188165 0 433.27899360907v-187.89410967007c0 -8.1102182725738 6.8028333597819 -14.721006390929 15.193733139057 -14.721006390929h193.55944429216c8.3613543575169 0 15.164187717299 6.6181744737943 15.164187717299 14.721006390929 V433.27899360907C223.90997879308 441.38921188165 217.11453178874 448 208.75317743122 448zM525.28066708023 448H331.6916773663c-8.3539680020774 0 -15.164187717299 -6.6107881183548 -15.164187717299 -14.721006390929v-187.89410967007 c0 -8.1102182725738 6.8102197152214 -14.721006390929 15.164187717299 -14.721006390929h193.58898971392c8.3687407129564 0 15.171574072738 6.6181744737943 15.171574072738 14.721006390929V433.27899360907C540.45224115296 441.38921188165 533.64940779318 448 525.28066708023 448zM208.75317743122 153.32873609648 H15.193733139057C6.8028333597819 153.32873609648 0 146.71794797813 0 138.54863886204v-187.84240518199c0 -8.1619227606503 6.8028333597819 -14.713620035489 15.193733139057 -14.713620035489h193.55944429216c8.3613543575169 0 15.164187717299 6.5516972748388 15.164187717299 14.713620035489V138.54863886204 C223.90997879308 146.71794797813 217.11453178874 153.32873609648 208.75317743122 153.32873609648zM525.28066708023 153.32873609648H331.6916773663c-8.3539680020774 0 -15.164187717299 -6.6181744737943 -15.164187717299 -14.780097234445v-187.84240518199 c0 -8.1619227606503 6.8102197152214 -14.713620035489 15.164187717299 -14.713620035489h193.58898971392c8.3687407129564 0 15.171574072738 6.5516972748388 15.171574072738 14.713620035489V138.54863886204C540.45224115296 146.71794797813 533.64940779318 153.32873609648 525.28066708023 153.32873609648z"/><glyph unicode="&#xE01B;" glyph-name="heart266" horiz-adv-x="561" d="M560.69896743447 276.11853119081C558.32150058044 336.6500885929 523.12091403434 448 405.20168632003 448c-61.321439481884 0 -100.52618072952 -20.826296816765 -124.43379971895 -46.532657176025C256.88372945561 427.17370318323 217.64770574937 448 156.3575487261 448 C38.618195148775 448 3.3315818415104 336.939451335 0.8837294556119 276.35314963035c-1.6423290768009 -12.231441314841 -3.9963340868821 -52.531068613674 23.563511944767 -108.58923443514c39.204741247632 -79.817193132523 119.90566383577 -156.28716319423 239.87389258875 -227.28270299994 c5.0912201380827 -3.0031160261502 10.768986375023 -4.4733915806195 16.470214455917 -4.4733915806195c5.6777662369402 0 11.386814932486 1.4702755544694 16.446752611963 4.4733915806195C569.11394879941 101.29651127268 563.8819575976 250.46691513411 560.69896743447 276.11853119081z"/><glyph unicode="&#xE01C;" glyph-name="home128" horiz-adv-x="568" d="M557.26275365213 224.27379836864L304.93175010369 440.30808460959c-0.7786294720349 0.66852025376734 -1.6437733298515 1.1718766801333 -2.4695924668582 1.753882548119c-0.66065530960537 0.47189664971812 -1.2819858984009 0.99098296440806 -1.9741009846541 1.4078250049924 c-0.96738813192215 0.56627597966175 -1.9898308729781 0.99884790857002 -3.004408669872 1.4707445582881c-0.77076452787293 0.35392248728859 -1.502204334936 0.7786294720349 -2.2965636952949 1.0696324060277c-0.96738813192215 0.35392248728859 -1.9662360404922 0.55054609133781 -2.9572190049002 0.81795419284474 c-2.0291555937879 0.5269512588519 -4.0819060200618 0.86514385781656 -6.1661162229835 0.99884790857002c-0.67638519792931 0.039324720809843 -1.3449054516966 0.16516382740134 -2.021290649626 0.16516382740134c-0.97525307608412 0 -1.9426412080063 -0.16516382740134 -2.9100293399284 -0.251678213183 c-0.93592835527427 -0.086514385781656 -1.8797216547105 -0.10224427410559 -2.8077850658228 -0.26740810150694c-0.9044685786264 -0.16516382740134 -1.7774773806049 -0.47189664971812 -2.6662160709074 -0.70784497457718c-0.97525307608412 -0.25954315734497 -1.9583710963302 -0.47976159388009 -2.9100293399284 -0.82581913700671 c-0.82581913700671 -0.31459776647875 -1.6123135532036 -0.75503463954899 -2.4302677460483 -1.1404169034855c-0.95165824359821 -0.45616676139418 -1.9190463755204 -0.87300880197852 -2.8313798983087 -1.4235548933163c-0.77076452787293 -0.46403170555615 -1.4786095024501 -1.0381726293799 -2.2021843653512 -1.5572589440698 c-0.69998003041521 -0.503356426366 -1.4471497258022 -0.92806341111231 -2.1078050354076 -1.4943393907741L10.830028111031 224.27379836864C-2.3594832485906 212.97187360789 -3.6886588119633 193.33310803545 7.8492142736448 180.43459960983c11.50641330896 -12.898508425629 31.554155977818 -14.259143765649 44.720072504954 -2.9572190049002 l21.770165440329 18.632052719704V13.855082259328c0 -42.950460068511 35.643926942042 -77.847217315166 79.475260756694 -77.847217315166h47.354828799214c17.515230648704 0 31.703589916896 13.905221278361 31.703589916896 31.058664495614V113.64549378639 c0 8.6907632989754 7.2200187406873 15.737753268099 16.06021597874 15.737753268099h70.194626645571c8.8716570147007 0 16.083810811226 -7.0469899691239 16.083810811226 -15.737753268099v-142.98468486459c0 -2.1313998678935 0.21235349237315 -4.1920152383293 0.6527903654434 -6.3312800503848l0.7786294720349 -3.6100093703436 c3.0751931673298 -14.432172537213 16.02089125793 -24.72738444523 31.050799551452 -24.72738444523h46.584064271341c43.839198758813 0 79.506720533342 34.904622190817 79.506720533342 77.847217315166V196.0937034363l21.738705663681 -18.608457887218 c6.0088173397441 -5.1436734819275 13.425459684481 -7.6997803345674 20.849966973379 -7.6997803345674c8.8166024055669 0 17.593880090324 3.6100093703436 23.870105531575 10.649134395306C571.78144057512 193.33310803545 570.45226501175 212.97187360789 557.26275365213 224.27379836864z"/><glyph unicode="&#xE01D;" glyph-name="home129" horiz-adv-x="568" d="M556.89490651193 224.25642442664L304.73046575174 440.32888152037c-11.946823861717 10.225538055325 -29.796321881428 10.225538055325 -41.743145743146 0L10.830739000952 224.25642442664C-2.3579257621811 212.96981977833 -3.6783641890025 193.34401768444 7.851892788063 180.39114549753 c11.522397224525 -12.88999416659 31.533327192902 -14.241871603574 44.690552945872 -2.8923889349421l21.755795032391 18.635473273771v-182.33053943692c0 -42.922108624236 35.620398514016 -77.795830646894 79.422799422799 -77.795830646894h63.168831168831c17.503668907924 0 31.682662491173 13.896042491787 31.682662491173 31.038162782844 V113.65398667526c0 8.685026557367 7.2152528322741 15.719505081207 16.049614687913 15.719505081207h38.481348438795c8.8343618556385 0 16.049614687913 -7.0344785238402 16.049614687913 -15.719505081207v-142.9531792085c0 -2.8137914095361 0.50302416259863 -5.4939670258819 1.2182616437936 -8.0876853642811 c2.2085904639096 -15.027846857634 15.279358938933 -26.613122102484 31.234656596359 -26.613122102484h62.430014430014c43.770961898621 0 79.422799422799 34.881581775199 79.422799422799 77.795830646894V196.1027908262l21.724356022228 -18.604034263609 c6.0048509410212 -5.1402781615548 13.41659758681 -7.6946977372509 20.83620398514 -7.6946977372509c8.802922845476 0 17.58226643333 3.6076264161371 23.846489208191 10.587086672193C571.40400970188 193.34401768444 570.07571152252 212.96981977833 556.89490651193 224.25642442664zM430.06207976421 13.803690399435 c0 -8.6378680421234 -7.1838138221117 -15.664486813423 -16.01817567775 -15.664486813423h-31.51760768782V113.65398667526c0 42.914248871696 -35.643977771637 77.850848914679 -79.414939670259 77.850848914679h-38.481348438795c-43.770961898621 0 -79.414939670259 -34.936600042983 -79.414939670259 -77.850848914679 v-115.51478308925h-31.486168677658c-8.8422216081791 0 -16.049614687913 7.0344785238402 -16.049614687913 15.664486813423V249.97353473949c0 0.14147554573086 -0.039298762703018 0.27509133892113 -0.039298762703018 0.41656688465199L283.86282275644 375.65883761628l146.19925700777 -125.23729698198V13.803690399435z"/><glyph unicode="&#xE01E;" glyph-name="horizontal32" horiz-adv-x="512" d="M482.36275662229 218.95694486209H29.686230556846C13.282523714497 218.95694486209 0 206.89910062601 0 192s13.282523714497 -26.956944862087 29.686230556846 -26.956944862087h452.67652606544c16.396708673902 0 29.67223421995 12.057844236079 29.67223421995 26.956944862087 S498.75946529619 218.95694486209 482.36275662229 218.95694486209z"/><glyph unicode="&#xE01F;" glyph-name="indent7" horiz-adv-x="608" d="M225.34614385874 361.24850688133h348.65956894313c18.779537782394 0 34.002596728123 14.81589197611 34.002596728123 33.063619839003S592.78525058426 427.3092703194 574.00571280187 427.3092703194H225.34614385874c-18.779537782394 0 -34.002596728123 -14.74110620618 -34.002596728123 -32.997143599065 S206.56660607634 361.24850688133 225.34614385874 361.24850688133zM574.00571280187 224.99714359907H225.34614385874c-18.779537782394 0 -34.002596728123 -14.749415736172 -34.002596728123 -33.005453129057s15.223058945728 -33.063619839003 34.002596728123 -33.063619839003h348.65956894313 c18.779537782394 0 34.002596728123 14.807582446118 34.002596728123 33.063619839003S592.78525058426 224.99714359907 574.00571280187 224.99714359907zM574.00571280187 22.676707348741H225.34614385874c-18.779537782394 0 -34.002596728123 -14.807582446118 -34.002596728123 -32.997143599065 c0 -18.247727862893 15.223058945728 -33.063619839003 34.002596728123 -33.063619839003h348.65956894313c18.779537782394 0 34.002596728123 14.807582446118 34.002596728123 33.063619839003C608.00830952999 7.8691249026227 592.78525058426 22.676707348741 574.00571280187 22.676707348741zM55.27499350818 448 C24.754089846793 448 0 423.93560114256 0 394.31212672033s24.754089846793 -53.687873279668 55.27499350818 -53.687873279668c30.537522721371 0 55.283303038172 24.06439885744 55.283303038172 53.687873279668S85.812516229551 448 55.27499350818 448zM55.27499350818 245.67956374968 C24.754089846793 245.67956374968 0 221.62347442223 0 191.99169047001c0 -29.681641132173 24.754089846793 -53.687873279668 55.27499350818 -53.687873279668c30.537522721371 0 55.283303038172 24.006232147494 55.283303038172 53.687873279668 C110.56660607634 221.62347442223 85.812516229551 245.67956374968 55.27499350818 245.67956374968zM55.27499350818 43.309270319398C24.754089846793 43.309270319398 0 19.303038171903 0 -10.312126720332c0 -29.681641132173 24.754089846793 -53.687873279668 55.27499350818 -53.687873279668 c30.537522721371 0 55.283303038172 24.006232147494 55.283303038172 53.687873279668C110.56660607634 19.303038171903 85.812516229551 43.309270319398 55.27499350818 43.309270319398z"/><glyph unicode="&#xE020;" glyph-name="left138" horiz-adv-x="540" d="M446.43965492369 152.60913471248h-415.10718716639C14.019100377968 152.60913471248 0 139.00366427191 0 122.22949306097s14.019100377968 -30.394414149283 31.332467757292 -30.394414149283h415.10718716639c17.305981130442 0 31.332467757292 13.620242938342 31.332467757292 30.394414149283 S463.74563605413 152.60913471248 446.43965492369 152.60913471248zM31.332467757292 387.16685420814H352.47179664734c17.305981130442 0 31.332467757292 13.620242938342 31.332467757292 30.446117891457C383.80426440463 434.38714331054 369.7703915289 448 352.47179664734 448H31.332467757292 C14.019100377968 448 0 434.38714331054 0 417.6129720996C0 400.7797108976 14.019100377968 387.16685420814 31.332467757292 387.16685420814zM289.79947488387 -3.2259441991979H31.332467757292C14.019100377968 -3.2259441991979 0 -16.831414639776 0 -33.605585850717 s14.019100377968 -30.394414149283 31.332467757292 -30.394414149283h258.46700712658c17.305981130442 0 31.332467757292 13.620242938342 31.332467757292 30.394414149283S307.10545601431 -3.2259441991979 289.79947488387 -3.2259441991979zM509.11197668715 304.61075045443H31.332467757292 C14.019100377968 304.61075045443 0 290.99789376497 0 274.22372255403s14.019100377968 -30.387027900401 31.332467757292 -30.387027900401h477.77950892986c17.305981130442 0 31.332467757292 13.61285668946 31.332467757292 30.387027900401S526.41795781759 304.61075045443 509.11197668715 304.61075045443z"/><glyph unicode="&#xE021;" glyph-name="less10" horiz-adv-x="608" d="M572.62633082316 448H398.80758244612c-19.527395481693 0 -35.373669176837 -15.879511815113 -35.373669176837 -35.381978706829s15.846273695144 -35.373669176837 35.373669176837 -35.373669176837h173.81874837704c19.527395481693 0 35.373669176837 15.871202285121 35.373669176837 35.373669176837 S592.15372630486 448 572.62633082316 448zM350.23837964165 86.751493118671c20.399896130875 30.42118930148 32.324071669696 66.991430797196 32.324071669696 106.30381719034c0 105.4977927811 -85.779278109582 191.2521423007 -191.28538042067 191.2521423007 C85.812516229551 384.30745260971 0 298.5614126201 0 193.05531030901s85.812516229551 -191.31030901065 191.28538042067 -191.31030901065c40.683458841859 0 78.408725006492 12.804985717995 109.4365099974 34.534406647624l89.90911451571 -89.90911451571 c6.8969098935341 -6.930148013503 15.937678525058 -10.370293430278 24.995066216567 -10.370293430278c9.0656972215009 0 18.098156323033 3.4401454167749 25.003375746559 10.312126720332c13.818748377045 13.810438847053 13.818748377045 36.246169826019 0 50.056608673072L350.23837964165 86.751493118671zM191.28538042067 72.500649182031c-66.467930407686 0 -120.56297065697 54.061802129317 -120.56297065697 120.56297065697s54.095040249286 120.56297065697 120.56297065697 120.56297065697s120.56297065697 -54.061802129317 120.56297065697 -120.56297065697 S257.75331082836 72.500649182031 191.28538042067 72.500649182031z"/><glyph unicode="&#xE022;" glyph-name="letter49" horiz-adv-x="512" d="M473.3668083478 448H38.633191652202C17.3188098785 448 0 430.6811901215 0 409.3668083478c0 -21.370361765228 17.3188098785 -38.682174144788 38.633191652202 -38.682174144788h183.93625715809c-3.2888245021799 -5.6819691399363 -5.1991417130205 -12.266615643237 -5.1991417130205 -19.320094575572 v-376.73834547418c0 -21.314381773702 17.290819882737 -38.633191652202 38.633191652202 -38.633191652202c21.349369268406 0 38.633191652202 17.3188098785 38.633191652202 38.633191652202V351.36453962744c0 7.0534789323347 -1.9103172108407 13.631127936695 -5.1991417130205 19.320094575572h183.93625715809 c21.335374270524 0 38.633191652202 17.3188098785 38.633191652202 38.682174144788C512 430.6811901215 494.70218261832 448 473.3668083478 448z"/><glyph unicode="&#xE023;" glyph-name="male221" horiz-adv-x="377" d="M260.8947505091 189.33045415408v22.196066640244c24.316308819309 15.429485164482 40.396561385286 41.873033661797 40.396561385286 71.892304117864V361.84679304077C301.29830939332 409.3668083478 261.02770298897 448 211.52739548169 448h-35.344367150023 c-49.500307507278 0 -89.763916412688 -38.633191652202 -89.763916412688 -86.153206959231V283.41882491219c0 -30.019270456067 16.087250064918 -56.455821454441 40.389563886345 -71.885306618923v-17.276824884856C53.090024463912 162.36209323621 0 75.131271440091 0 -27.263130560757 c0 -20.264756932581 17.157867402862 -36.736869439243 38.318304199866 -36.736869439243h300.63354699395c21.153439298063 0 38.318304199866 16.472112506663 38.318304199866 36.736869439243C377.26315789474 70.233022181525 329.1413576788 154.00008200194 260.8947505091 189.33045415408z"/><glyph unicode="&#xE024;" glyph-name="menu31" horiz-adv-x="608" d="M35.249026226954 376.13087509738h537.4936380161c19.47753830174 0 35.249026226954 16.062321474942 35.249026226954 35.930407686315C607.99169047001 431.87951181511 592.22020254479 448 572.74266424305 448H35.249026226954C15.771487925214 448 0 431.87951181511 0 412.06128278369 C0 392.18488704233 15.771487925214 376.13087509738 35.249026226954 376.13087509738zM572.74266424305 227.93871721631H35.249026226954C15.771487925214 227.93871721631 0 211.80991950143 0 192c0 -19.884705271358 15.771487925214 -35.938717216307 35.249026226954 -35.938717216307h537.4936380161 c19.47753830174 0 35.249026226954 16.062321474942 35.249026226954 35.938717216307C607.99169047001 211.80991950143 592.22020254479 227.93871721631 572.74266424305 227.93871721631zM572.74266424305 7.8774344326149H35.249026226954 C15.771487925214 7.8774344326149 0 -8.2513632822643 0 -28.061282783693c0 -19.876395741366 15.771487925214 -35.938717216307 35.249026226954 -35.938717216307h537.4936380161c19.47753830174 0 35.249026226954 16.070631004934 35.249026226954 35.938717216307 C607.99169047001 -8.2513632822643 592.22020254479 7.8774344326149 572.74266424305 7.8774344326149z"/><glyph unicode="&#xE025;" glyph-name="minus72" horiz-adv-x="512" d="M256.00349874947 448C114.84295261655 448 0 333.15704738345 0 192.00349874947c0 -141.16054613293 114.84295261655 -256.00349874947 256.00349874947 -256.00349874947S512.00699749894 50.842952616545 512.00699749894 192.00349874947 C512.00699749894 333.15704738345 397.1640448824 448 256.00349874947 448zM256.00349874947 -8.7897333570228c-110.70743074253 0 -200.75824461179 90.050813869262 -200.75824461179 200.79323210649c0 110.67944074676 90.050813869262 200.73725211497 200.75824461179 200.73725211497 s200.75824461179 -90.050813869262 200.75824461179 -200.73725211497C456.76174336126 81.261080512239 366.710929492 -8.7897333570228 256.00349874947 -8.7897333570228zM323.89323347319 219.5806420752H188.13475652257c-15.261545189903 0 -27.626125818311 -12.322595634763 -27.626125818311 -27.577143325725 c0 -15.268542688844 12.371578127349 -27.633123317252 27.626125818311 -27.633123317252h135.75847695062c15.24055269308 0 27.605133321489 12.371578127349 27.605133321489 27.633123317252C351.49836679468 207.26504393937 339.13378616627 219.5806420752 323.89323347319 219.5806420752z"/><glyph unicode="&#xE026;" glyph-name="monitor63" horiz-adv-x="485" d="M407.45036832538 448H77.602263253564C34.812557230521 448 0 412.26377290929 0 368.3684620536v-218.95174185789c0 -43.944293348276 34.812557230521 -79.631537946398 77.602263253564 -79.631537946398h62.550643031885v-37.57656931214l-44.315160792139 -52.264319588897 c-6.6546214927087 -7.8441963126461 -8.2360562533313 -18.949227131709 -4.0235618909648 -28.423840697563c4.2124943623666 -9.4746135658544 13.393212972707 -15.527450149654 23.54658393582 -15.527450149654h242.53331328841c9.9154559991253 0 18.970219628531 5.8359141166341 23.28767647501 15.002637729093 c4.3104593475379 9.159726113518 3.1278820265413 20.103814456942 -3.0579070371332 28.0529732537l-40.732441334445 52.474244557121V69.785182249313h70.051961896432c42.782708524102 0 77.609260752504 35.687244598122 77.609260752504 79.631537946398V368.3684620536 C485.05263157895 412.26377290929 450.23307684949 448 407.45036832538 448zM433.31312441061 149.41672019571c0 -14.63177028523 -11.60185324386 -26.57650097719 -25.862756085227 -26.57650097719H77.602263253564c-14.260902841367 0 -25.862756085227 11.94473069196 -25.862756085227 26.57650097719V368.3684620536 c0 14.63177028523 11.60185324386 26.520520985663 25.862756085227 26.520520985663h329.84810507182c14.260902841367 0 25.862756085227 -11.888750700433 25.862756085227 -26.520520985663V149.41672019571z"/><glyph unicode="&#xE027;" glyph-name="mute27" horiz-adv-x="539" d="M285.13275924452 444.46538823359c-9.4404515522107 5.1870612924235 -20.896446920906 4.6313047253781 -29.840422606556 -1.5042477748028L102.68899341486 338.52336637962h-15.442622476301C39.125262319994 338.52336637962 0 298.33846153846 0 248.95763803459v-114.47844272379 c0 -49.440104204356 39.125262319994 -89.625009045517 87.246370938563 -89.625009045517h15.472262826543L255.35161733845 -59.042651421955c4.8461972646356 -3.282668789348 10.448223460453 -4.9573485780447 16.079890006513 -4.9573485780447c4.7054056009842 0 9.4404515522107 1.1707938345756 13.738302337362 3.564252116651 c9.4478616397713 5.1796512048629 15.324061075331 15.272190462407 15.324061075331 26.305810840148V418.10770678052C300.49387075765 429.14132715826 294.61767132209 439.28573702873 285.13275924452 444.46538823359zM242.33209349446 21.49759027426l-114.78225631377 78.139373326579 c-4.7720963890296 3.2382082639844 -10.344482234605 4.9647586656053 -16.079890006513 4.9647586656053h-24.223576235618c-16.05024965627 0 -29.092003762935 13.375208046892 -29.092003762935 29.870062956799V248.95763803459c0 16.442984296982 13.041754106665 29.810782256314 29.092003762935 29.810782256314h24.223576235618 c5.7354077719082 0 11.367074317968 1.7858311021058 16.131760619437 5.0240393660902l114.73038570085 78.532107967291V21.49759027426zM497.7429915334 202.09624430132l33.078630870541 33.975251465374c11.367074317968 11.648657645271 11.367074317968 30.544380924814 0 42.193038570085 c-11.337433967726 11.700528258195 -29.76632173095 11.700528258195 -41.111165786236 0l-33.078630870541 -33.953021202692l-29.981214270208 30.774093639192c-11.374484405529 11.648657645271 -29.76632173095 11.648657645271 -41.133396048918 0c-11.374484405529 -11.648657645271 -11.374484405529 -30.544380924814 0 -42.244909183009 l29.966394095086 -30.766683551632l-26.876387582314 -27.587755988132c-11.337433967726 -11.648657645271 -11.337433967726 -30.544380924814 0 -42.244909183009c5.683537158984 -5.7946884723931 13.123265069831 -8.7587234966351 20.562992980679 -8.7587234966351c7.447137998408 0 14.886865909255 2.9566249366814 20.562992980679 8.7587234966351 l26.868977494754 27.602576163253l29.981214270208 -30.774093639192c5.6909472465446 -5.8539691728779 13.123265069831 -8.7513134090745 20.570403068239 -8.7513134090745c7.4397279108474 0 14.879455821695 2.8973442361965 20.562992980679 8.7513134090745c11.359664230407 11.64124755771 11.359664230407 30.544380924814 0 42.244909183009 L497.7429915334 202.09624430132z"/><glyph unicode="&#xE028;" glyph-name="mute28" horiz-adv-x="571" d="M301.90244724704 444.46149838332c-9.9956786245154 5.1861409503961 -22.125442481266 4.6604655439263 -31.595445699312 -1.4750294987511L108.72850422177 338.52613512727h-16.350858911688C41.426360390456 338.52613512727 0 298.33942718789 0 248.94947668449v-114.48739598817 C0 85.06428429134 41.426360390456 44.877576351962 92.377645310082 44.877576351962h16.382242518044L270.36976876044 -59.041390195688c5.1312196392724 -3.3031245690118 11.062721240633 -4.9586098043122 17.02560644835 -4.9586098043122c4.9821475090795 0 9.9956786245154 1.1768852383652 14.546301546194 3.5385016166848 c10.003524526104 5.1939868519852 16.225324486262 15.28381629557 16.225324486262 26.315153929847V418.13065265029C318.16700124125 429.11491487503 311.94520128109 439.26751153133 301.90244724704 444.46149838332zM527.01705564154 202.0780605912l35.047642398517 34.004137487166 c12.012075332914 11.619780253459 12.012075332914 30.56763259114 -0.023537704767305 42.187412844599c-12.004229431325 11.690393367761 -31.516986683421 11.690393367761 -43.560445622692 0l-35.008412890571 -33.957062077632l-31.728826026327 30.779471934045c-12.043458939271 11.682547466172 -31.548370289777 11.682547466172 -43.552599721103 0 c-12.043458939271 -11.682547466172 -12.043458939271 -30.56763259114 0 -42.195258746188l31.752363731094 -30.803009638813l-28.480622768439 -27.625419495227c-12.004229431325 -11.682547466172 -12.004229431325 -30.56763259114 0 -42.258025958901c6.0178065188409 -5.7824294711678 13.895091714299 -8.73248846867 21.772376909757 -8.73248846867 c7.8851310970471 0 15.762416292505 2.9500589975022 21.772376909757 8.73248846867l28.480622768439 27.633265396816l31.713134223148 -30.763780130867c6.02565242043 -5.8373507822916 13.895091714299 -8.7952556813828 21.780222811346 -8.7952556813828c7.877285195458 0 15.754570390916 2.9579048990913 21.772376909757 8.7952556813828 c12.027767136093 11.619780253459 12.027767136093 30.512711280016 0 42.195258746188L527.01705564154 202.0780605912z"/><glyph unicode="&#xE029;" glyph-name="open194" horiz-adv-x="744" d="M738.01921578811 214.07522521623C732.26135069812 223.61712242574 594.05213431077 448 383.32245370833 448h-22.458741985099C150.13403112079 448 11.945268961109 223.61712242574 6.1771767572858 214.07522521623c-8.2328266384356 -13.530471605777 -8.2328266384356 -30.609751712842 0 -44.150450432455 c5.7680922038232 -9.613487006372 143.9568543635 -233.92477478377 354.69676207978 -233.92477478377h22.458741985099c210.7194534886 0 348.92866987596 224.3112877774 354.69676207978 233.92477478377C746.25204242654 183.46547350339 746.25204242654 200.54475361045 738.01921578811 214.07522521623zM383.32245370833 20.619139883746h-22.458741985099c-129.84343726904 0 -231.3884505523 120.60835347462 -268.37992129916 171.38597367317C129.51616962627 242.84409643849 231.02027445419 363.39108723009 360.86371172323 363.39108723009h22.458741985099 c129.88434572439 0 231.46004034916 -120.70039749915 268.42082975451 -171.46779058386C614.90521942353 141.07408665082 513.7897449214 20.619139883746 383.32245370833 20.619139883746zM372.09308271578 260.76199988015 c-37.492599324851 0 -67.836446077942 -30.844975331083 -67.836446077942 -68.767113437069c0 -38.003955016679 30.343846753091 -68.777340550906 67.836446077942 -68.777340550906c37.472145097178 0 67.856900305615 30.773385534227 67.856900305615 68.777340550906 C439.94998302139 229.9272516629 409.56522781296 260.76199988015 372.09308271578 260.76199988015z"/><glyph unicode="&#xE02A;" glyph-name="pause26" horiz-adv-x="512" d="M255.99650125053 448C114.8359551176 448 0 333.15704738345 0 191.99650125053s114.8359551176 -255.99650125053 255.99650125053 -255.99650125053s255.99650125053 114.8359551176 255.99650125053 255.99650125053S397.15704738345 448 255.99650125053 448zM255.99650125053 -8.7897333570228c-110.70743074253 0 -200.76524211073 90.050813869262 -200.76524211073 200.78623460755c0 110.67944074676 90.057811368202 200.74424961391 200.76524211073 200.74424961391s200.76524211073 -90.057811368202 200.76524211073 -200.74424961391 C456.76174336126 81.261080512239 366.70393199306 -8.7897333570228 255.99650125053 -8.7897333570228zM204.20801158961 259.89323347319c-15.23355519414 0 -27.598135822548 -12.371578127349 -27.598135822548 -27.633123317252v-80.527217810822 c0 -15.268542688844 12.371578127349 -27.626125818311 27.598135822548 -27.626125818311c15.268542688844 0 27.633123317252 12.364580628408 27.633123317252 27.626125818311V232.26011015594C231.84113490686 247.52865284478 219.46955677951 259.89323347319 204.20801158961 259.89323347319zM307.78499091145 259.89323347319c-15.268542688844 0 -27.633123317252 -12.371578127349 -27.633123317252 -27.633123317252v-80.527217810822c0 -15.268542688844 12.371578127349 -27.626125818311 27.633123317252 -27.626125818311c15.23355519414 0 27.598135822548 12.364580628408 27.598135822548 27.626125818311 V232.26011015594C335.39012423294 247.52865284478 323.01854610559 259.89323347319 307.78499091145 259.89323347319z"/><glyph unicode="&#xE02B;" glyph-name="pen53" horiz-adv-x="541" d="M510.75949918029 -4.6639488154134H204.56378487385l320.962873765 311.43255908425c5.7568151812787 5.5859677629956 8.9657753855528 13.132966761937 8.9657753855528 21.006804300202c0 7.8218404979181 -3.2089602042741 15.413408388585 -8.9657753855528 20.947379111234L432.11026158109 439.28678166756 c-11.981603725681 11.617624443252 -31.369071626503 11.617624443252 -43.291250163216 0L79.733747297866 139.70211963382l-19.892582007051 -19.550887170485c-3.045540934612 -3.015828340128 -5.4151203447125 -6.5961959754523 -6.9304626633975 -10.562827339069L1.9090341955982 -24.051416716236 c-4.0483409984476 -10.562827339069 -1.530198615927 -22.455293281298 6.4550611516532 -30.670825656129c5.8682374105938 -6.0316566802559 13.964919407489 -9.277757627635 22.262161417151 -9.277757627635c2.5775675714887 0 5.1848477374614 0.36397928242924 7.76241530895 1.0176563610777 c2.4215764504476 -0.60168003830139 4.9248625357262 -1.0176563610777 7.5469989989409 -1.0176563610777H510.75949918029c16.891609964165 0 30.611400467161 13.296386031599 30.611400467161 29.668025592293S527.65110914446 -4.6639488154134 510.75949918029 -4.6639488154134zM410.46463649948 376.3183658073 l50.11771874592 -48.542951238267L195.62772208278 70.932319700553l-50.013724665226 48.483526049299L410.46463649948 376.3183658073zM108.06470613838 82.995633061065l15.933378792055 15.45054913169l49.998868367984 -48.483526049299l-0.83938079417355 -0.81709634831053l-14.470033513717 -14.247189055087 l-77.832141250889 -23.190679994777L108.06470613838 82.995633061065z"/><glyph unicode="&#xE02C;" glyph-name="photo158" horiz-adv-x="529" d="M444.04351813961 353.01553614517H227.82688698548c-0.85252656384495 26.392199472251 -22.765349175216 47.662014760043 -49.67773434744 47.662014760043h-37.930207289712c-26.905160370836 0 -48.810758180818 -21.262590486404 -49.663284744663 -47.662014760043h-5.9749107483032 C37.930207289712 353.01553614517 0 315.46824332905 0 269.33066166199v-202.31611328263c0 -46.130356865678 37.930207289712 -83.677649681798 84.580749855363 -83.677649681798h359.46276828425c46.650542565651 0 84.580749855363 37.54729281612 84.580749855363 83.677649681798V269.33066166199 C528.62426799498 315.46824332905 490.69406070526 353.01553614517 444.04351813961 353.01553614517zM472.24914276038 67.00732357797c0 -15.367152553375 -12.672301635458 -27.866058955508 -28.205624620768 -27.866058955508H84.580749855363 c-15.540547786699 0 -28.205624620768 12.498906402134 -28.205624620768 27.866058955508V269.33066166199c0 15.374377354763 12.665076834069 27.873283756897 28.205624620768 27.873283756897h359.46276828425c15.533322985311 0 28.205624620768 -12.498906402134 28.205624620768 -27.873283756897V67.00732357797 L472.24914276038 67.00732357797zM264.60835085442 260.30688472773c-51.324989064021 0 -93.084341089647 -41.354763147869 -93.084341089647 -92.159566511917c0 -50.812028165437 41.759352025625 -92.101768100809 93.084341089647 -92.101768100809 c51.346663468187 0 93.091565891035 41.289739935372 93.091565891035 92.101768100809C357.69991674545 218.95934638125 315.9550143226 260.30688472773 264.60835085442 260.30688472773zM264.60835085442 131.84991603991c-20.236668689235 0 -36.701991053664 16.306376733882 -36.701991053664 36.290177374518 c0 20.041599051745 16.465322364429 36.355200587015 36.701991053664 36.355200587015c20.251118292012 0 36.709215855052 -16.306376733882 36.709215855052 -36.355200587015C301.31756670947 148.15629277379 284.85946914643 131.84991603991 264.60835085442 131.84991603991z"/><glyph unicode="&#xE02D;" glyph-name="picture26" horiz-adv-x="528" d="M443.25790402044 383.88555440667H84.412578310322C37.868256188796 383.88555440667 0 347.63043610486 0 303.07295176692v-222.18950185512c0 -44.545027674716 37.868256188796 -80.769004318472 84.418806641932 -80.769004318472h358.8390973785 c46.550550453135 0 84.425034973542 36.205291648926 84.425034973542 80.769004318472V303.07295176692C527.67671066237 347.63043610486 489.80222614196 383.88555440667 443.25790402044 383.88555440667zM471.3912779028 141.24221154431l-77.106745331792 98.31421446384 c-5.2816252052795 6.7016848123593 -13.496794598869 10.687817042759 -22.253828842528 10.775013685299c-9.1867891247491 0.043598321269996 -17.022030290128 -3.7494556292196 -22.446907122438 -10.351487135819L265.66325649291 137.20002432942l-28.195657198467 19.438622954808 c-6.3528982421994 4.3536037953896 -14.368761024269 5.9978833404294 -22.017152241348 4.5404537436896c-7.6733045435193 -1.4947995863999 -14.393674350709 -6.0041116720394 -18.460774892038 -12.406836567119L136.67450884983 53.995742351438h-52.268158871115c-15.502317377288 0 -28.133373882367 12.045593333739 -28.133373882367 26.881479228757 V303.07295176692c0 14.854570889849 12.612371510249 26.937534213247 28.133373882367 26.937534213247h358.8390973785c15.496089045678 0 28.139602213977 -12.082963323399 28.139602213977 -26.937534213247L471.3912779028 141.24221154431L471.3912779028 141.24221154431zM152.48201447601 285.88898485494 c-25.255884678548 0 -45.728410680616 -19.588102913448 -45.728410680616 -43.754029560246c0 -24.165926646798 20.472526002068 -43.754029560246 45.728410680616 -43.754029560246c25.274569673378 0 45.747095675446 19.588102913448 45.747095675446 43.754029560246 C198.22288181984 266.30088194149 177.75035581777 285.88898485494 152.48201447601 285.88898485494z"/><glyph unicode="&#xE02E;" glyph-name="placeholder15" horiz-adv-x="350" d="M190.49291366562 446.73345269171C188.05778403422 447.48218507838 185.53868441553 448 182.87263731908 448H167.45014965354c-2.6660470964479 0 -5.1851467151389 -0.51781492161981 -7.6202763465402 -1.2665473082863C56.609766431139 437.31481911739 0 364.0300127103 0 238.6838141836 c0 -133.58225478003 141.92327351747 -287.63219396192 147.95511760445 -294.10488048217c5.1011767278492 -5.5280241632385 12.154655660184 -8.5789337014309 19.495032049092 -8.5789337014309h15.422487665541c7.3473738878487 0 14.400852820183 3.0509095381924 19.502029548033 8.5789337014309 c6.0178490890951 6.4726865202476 147.94812010551 160.52262570214 147.94812010551 294.10488048217C350.31578947368 364.0300127103 293.71302054149 437.32181661633 190.49291366562 446.73345269171zM175.16139348631 331.36568765461c37.31766185133 0 67.658817258675 -31.320805259058 67.658817258675 -69.793054435622 c0 -38.52822916809 -30.341155407345 -69.835039429267 -67.658817258675 -69.835039429267s-67.658817258675 31.313807760117 -67.658817258675 69.835039429267C107.50257622764 300.04488239555 137.84373163498 331.36568765461 175.16139348631 331.36568765461z"/><glyph unicode="&#xE02F;" glyph-name="rec" horiz-adv-x="512" d="M255.99650125053 448C114.84295261655 448 0 333.15704738345 0 191.99650125053s114.84295261655 -255.99650125053 255.99650125053 -255.99650125053c141.16054613293 0 256.00349874947 114.8359551176 256.00349874947 255.99650125053 S397.15704738345 448 255.99650125053 448zM255.99650125053 -4.6332189861827c-108.41924858888 0 -196.62972023671 88.203474148888 -196.62972023671 196.62972023671S147.57725266165 388.63321898618 255.99650125053 388.63321898618s196.63671773565 -88.210471647829 196.63671773565 -196.63671773565 S364.41574983941 -4.6332189861827 255.99650125053 -4.6332189861827zM255.99650125053 273.629323894c-43.419480927715 0 -78.595908103158 -35.211414670147 -78.595908103158 -78.630895597862c0 -43.363500936189 35.176427175443 -78.574915606336 78.595908103158 -78.574915606336 c43.391490931952 0 78.602905602099 35.211414670147 78.602905602099 78.574915606336C334.59940685263 238.41790922385 299.38799218248 273.629323894 255.99650125053 273.629323894z"/><glyph unicode="&#xE030;" glyph-name="rectangular74" horiz-adv-x="654" d="M548.9976273552 363.75045359386h-122.6406140963c-19.240195394278 0 -34.862805303559 -15.6494068388 -34.862805303559 -34.925331472435c0 -19.284856943475 15.622609909281 -34.943196092114 34.862805303559 -34.943196092114h122.6406140963 c19.213398464759 0 34.871737613398 -15.6494068388 34.871737613398 -34.862805303559v-218.28778785764c0 -19.275924633636 -15.658339148639 -34.934263782275 -34.871737613398 -34.934263782275H104.570551291c-19.240195394278 0 -34.827076064201 15.658339148639 -34.827076064201 34.934263782275V259.01912072575 c0 19.213398464759 15.586880669923 34.862805303559 34.827076064201 34.862805303559h70.04717376134v-3.7069085833915l-22.411165387299 -18.865038381019c-14.738311235171 -12.353384508025 -16.623028611305 -34.398325191905 -4.2696441032798 -49.172365666434 c6.9136078157711 -8.1998604326588 16.792742498255 -12.496301465457 26.698674110258 -12.496301465457c7.9318911374738 0 15.890579204466 2.6886252616888 22.411165387299 8.1998604326588l96.817306350314 81.489462665736c7.7264480111654 6.5205861828332 12.228332170272 16.060293091417 12.424842986741 26.207397069086 c0.14291695743196 10.075645498953 -4.0552686671319 19.749337055129 -11.585205861828 26.537892533147L197.92212142359 439.0676901605c-14.309560362875 12.898255408234 -36.381297976274 11.692393579902 -49.24382414515 -2.6886252616888c-12.844661549197 -14.372086531752 -11.656664340544 -36.408094905792 2.6886252616888 -49.315282623866 l23.250802512212 -20.892672714585v-2.4206559665038h-70.04717376134C46.894626657362 363.75045359386 0 316.73077459874 0 259.01912072575v-218.28778785764C0 -17.033914863922 46.894626657362 -64 104.570551291 -64h444.4270760642 c57.675924633636 0 104.570551291 46.966085136078 104.570551291 104.74026517795V259.01912072575C653.5681786462 316.73077459874 606.67355198883 363.75045359386 548.9976273552 363.75045359386z"/><glyph unicode="&#xE031;" glyph-name="rhombus3" horiz-adv-x="510" d="M509.17865633288 404.94108917014c0.10553654615163 0.90057852716054 0.21810886204669 1.7941212845776 0.26032348050734 2.6946998117382c0.042214618460651 0.92168583639087 0.014071539486884 1.8363359030383 -0.0070357697434418 2.7580217394292 c-0.021107309230325 0.83022082972613 -0.021107309230325 1.6604416594523 -0.098500776408185 2.4906624891784c-0.084429236921301 0.9779719943384 -0.2532877107639 1.9348366794465 -0.41511041486306 2.9057729040414c-0.12664385538195 0.75282736254827 -0.22514463179014 1.5197262645834 -0.40103887537618 2.2655178573882 c-0.22514463179014 1.0131508430556 -0.54879003998846 1.9981586071375 -0.85836390869989 2.9902021409627c-0.21107309230325 0.68950543485729 -0.40103887537618 1.3719750999711 -0.64729081639664 2.0474089953416c-0.3869673358893 1.0131508430556 -0.85836390869989 1.9770512979071 -1.322724711767 2.9550232922455 c-0.29550232922455 0.62618350716632 -0.54879003998846 1.2594027840761 -0.87947121793022 1.8715147517555c-0.52064696101469 0.94982891536464 -1.1327589286941 1.8574432122686 -1.7378351266301 2.7650575091726c-0.3869673358893 0.59100465844911 -0.73172005331794 1.1960808563851 -1.146830468181 1.7659782056039 c-0.61914773742287 0.82318505998269 -1.3297604815105 1.5900839620178 -2.0192659163678 2.3710544035399c-0.4713965728106 0.54175427024502 -0.88650698767366 1.1257231589507 -1.3930824092015 1.6463701199654c-0.049250388204092 0.049250388204092 -0.10553654615163 0.084429236921301 -0.14775116461228 0.13367962512539 c-0.021107309230325 0.028143078973767 -0.042214618460651 0.049250388204092 -0.063321927690976 0.077393467177859c-0.54879003998846 0.5558258097319 -1.1679377774113 1.0201866127991 -1.751906666117 1.5408335738137c-3.0957386871144 2.7720932789161 -6.5503016311443 4.9883607481002 -10.251116516195 6.5995520193484 c-0.36586002665897 0.14775116461228 -0.71061274408762 0.35882425691553 -1.0764727707466 0.50657542152781c-1.08350854049 0.42918195434995 -2.2092316994407 0.73875582306138 -3.3349548583914 1.0694370010031c-0.5558258097319 0.15478693435572 -1.0975800799769 0.37289579640241 -1.6674774291957 0.50657542152781 c-1.0553654615163 0.26032348050734 -2.1318382322629 0.40807464511962 -3.2083110030094 0.56989734921878c-0.65432658614008 0.10553654615163 -1.3016174025367 0.24625194102046 -1.9559439886768 0.30957386871144c-1.0553654615163 0.11257231589507 -2.117766692776 0.11257231589507 -3.1801679240357 0.12664385538195 c-0.69654120460073 0.014071539486884 -1.3719750999711 0.063321927690976 -2.0685163045719 0.035178848717209c-1.0905443102335 -0.042214618460651 -2.1810886204669 -0.18293001332949 -3.264597160957 -0.32364540819832c-0.66136235588352 -0.084429236921301 -1.3156889420236 -0.13367962512539 -1.9629797584202 -0.2532877107639 c-1.1679377774113 -0.20403732255981 -2.3147682455923 -0.52064696101469 -3.4686344835168 -0.84429236921301c-0.42918195434995 -0.12664385538195 -0.86539967844334 -0.17589424358604 -1.3016174025367 -0.31660963845488l-1.2664385538195 -0.40103887537618c-0.028143078973767 -0.0070357697434418 -0.056286157947534 -0.014071539486884 -0.084429236921301 -0.021107309230325 l-0.070357697434418 -0.021107309230325L129.80291599676 342.79413502632c-12.017094721799 -3.7571010429979 -21.409847329293 -13.22724711767 -25.138805293317 -25.300627997417L1.7378351266301 -14.046034821564c-4.2425691552954 -13.649393302277 -0.58396888870567 -28.57929669786 9.4982891536464 -38.682662049443 c7.2749859147188 -7.3523793818966 17.06877739759 -11.271303128994 27.073641972764 -11.271303128994c3.8344945101758 0 7.676024790095 0.52064696101469 11.426090063349 1.7448708963736l329.97760096742 103.40470791936c12.017094721799 3.7500652732545 21.437990408267 13.170960959723 25.166948372291 25.237306069726 l102.89813249784 331.59582800841c0.16182270409916 0.52064696101469 0.23218040153358 1.0553654615163 0.37993156614585 1.5900839620178c0.24625194102046 0.93575737587775 0.48546811229748 1.8715147517555 0.66839812562697 2.8072721276333C508.98165478006 403.23843289222 509.07311978673 404.08976103118 509.17865633288 404.94108917014zM168.04232455236 263.1562573003l157.58717071361 -158.31889076693l-229.01430514903 -71.778922922593L168.04232455236 263.1562573003z"/><glyph unicode="&#xE032;" glyph-name="right128" horiz-adv-x="529" d="M517.64256988443 212.36310271353L368.21200276574 346.58546290939c-13.611525815965 12.22436394937 -34.498426630166 11.082845329984 -46.708340976759 -2.4997812804267c-12.195464743816 -13.647649822908 -11.046721323042 -34.563449842663 2.5431300887578 -46.80226339481l81.336814031919 -73.021067633736 H33.06791595524C14.810842846459 224.26957540181 0 209.4298333498 0 191.16553543963s14.810842846459 -33.096815160794 33.06791595524 -33.096815160794h375.84139303202l-84.06056415539 -70.701906388023c-7.8027854995978 -6.560119660773 -11.798100667447 -15.916237458902 -11.798100667447 -25.37350247647 c0 -7.4993438412801 2.5575796915348 -15.056486093668 7.7449870884897 -21.248140883627c11.754751859116 -14.001665090945 32.612753467764 -15.807865438074 46.592744154543 -4.0603383803463l149.43779192008 125.68264495463c7.3548478135098 6.1844299885701 11.624705434123 15.208206922827 11.798100667447 24.83886717372 C528.11853189778 197.25604301015 524.7734488549 205.94747908053 517.64256988443 212.36310271353z"/><glyph unicode="&#xE033;" glyph-name="rotating23" horiz-adv-x="461" d="M435.75545875531 186.93086721724c-13.70530279087 0 -24.842620202548 -10.898107814712 -24.842620202548 -24.392343314141c0 -98.005578992209 -81.021697607629 -177.69755266376 -180.61028128564 -177.69755266376S49.685240405095 64.532944910887 49.685240405095 162.5385239031 c0 97.949294381158 81.021697607629 177.64126805271 180.61028128564 177.64126805271c5.1570774875297 0 9.9412694268479 1.5407912275157 13.916370082311 4.179132370522v-6.7963667843843l-15.977793962046 -13.198741291413c-10.497079960975 -8.6819012545862 -11.854946202575 -24.082777953362 -3.0393689967433 -34.403968504803 c4.9178678905638 -5.7621370563258 11.953444271914 -8.7311502892556 19.045305264315 -8.7311502892556c5.6354966814615 0 11.292100092067 1.8573921646765 15.956687232902 5.7128880216564l69.011968724664 56.995204265318c5.5018207302159 4.601266953403 8.7241147128743 11.278028939304 8.8366839349759 18.362854355324 c0.140711527627 7.0355763813502 -2.8845863163536 13.81083643659 -8.2316243661798 18.573921646765l-69.004933148283 60.857735698679c-10.215656905721 9.0477512264164 -25.933134541657 8.196446484273 -35.086419413794 -1.8573921646765c-9.1532848721366 -10.053838648949 -8.3019801299933 -25.503964382395 1.9066411993459 -34.502466574142l16.582853530842 -14.64103444959 v-5.8887774311901c-3.9680650790815 2.6383411430063 -8.7522570183997 4.179132370522 -13.916370082311 4.179132370522C103.32447473651 389.02076319514 0 287.42704024844 0 162.5385239031c0 -124.9448009564 103.32447473651 -226.5385239031 230.29552169074 -226.5385239031 c127.00622483613 0 230.29552169074 101.5937229467 230.29552169074 226.5385239031C460.59807895786 176.03275940253 449.48186827532 186.93086721724 435.75545875531 186.93086721724z"/><glyph unicode="&#xE034;" glyph-name="search63" horiz-adv-x="536" d="M528.65404747912 -20.790444040509l-121.47658161243 116.69029233692c29.858327980429 36.96778690429 47.687955281608 83.319219888204 47.687955281608 133.63123727262C454.8654211483 350.00002733398 352.84188659132 448 227.41871557627 448 C102.02353455698 448 0 350.00002733398 0 229.52408807008s102.02353455698 -218.48290942886 227.41871557627 -218.48290942886c54.090666812448 0 103.80789678689 18.256474736569 142.8889283713 48.660607634381l121.06372917492 -116.28443739835 c5.1221692246717 -4.9472317511514 11.888750700433 -7.4243463761976 18.627342180432 -7.4243463761976c6.7665814757616 0 13.50517295576 2.4771146250461 18.655332176195 7.4243463761976C538.94736842105 -46.6811901215 538.94736842105 -30.684907542812 528.65404747912 -20.790444040509zM52.733152017931 229.52408807008 c0 92.527928494308 78.371988137053 167.79302710164 174.68556355834 167.79302710164c96.341565417048 0 174.7135535541 -75.265098607334 174.7135535541 -167.79302710164S323.76028099332 61.682078475857 227.41871557627 61.682078475857 C131.10514015498 61.682078475857 52.733152017931 137.00315707472 52.733152017931 229.52408807008z"/><glyph unicode="&#xE035;" glyph-name="speaker68" horiz-adv-x="539" d="M296.43314277444 444.46538823359c-9.810955930241 5.1870612924235 -21.741196902815 4.6313047253781 -31.026036616253 -1.5042477748028L106.73490122295 338.52336637962h-16.020609306028C40.681380707721 338.52336637962 0 298.33846153846 0 248.89835733411v-114.4191620233 c0 -49.440104204356 40.681380707721 -89.625009045517 90.714291916926 -89.625009045517h16.079890006513l158.67220493523 -103.89683768724c5.046269628772 -3.282668789348 10.870598451407 -4.9573485780447 16.694927274043 -4.9573485780447c4.9351183153629 0 9.8331861929228 1.1707938345756 14.301468991968 3.564252116651 c9.8257761053622 5.1796512048629 15.931688255301 15.272190462407 15.931688255301 26.305810840148V418.10770678052C312.39447137998 429.14132715826 306.26632896736 439.28573702873 296.43314277444 444.46538823359zM251.95038714813 21.49759027426L132.60351689703 99.636963600839 c-4.9647586656053 3.2382082639844 -10.759447137998 4.9647586656053 -16.702337361604 4.9647586656053h-25.179477530936c-16.702337361604 0 -30.240567334829 13.375208046892 -30.240567334829 29.870062956799V248.89835733411c0 16.502264997467 13.538229973225 29.870062956799 30.240567334829 29.870062956799h25.179477530936 c5.965120486287 0 11.796859396483 1.726550401621 16.78384832477 5.0240393660902l119.2727693755 78.532107967291V21.49759027426zM539.23948187278 211.49964541573c-4.5053332368478 82.711397351473 -70.840437079383 136.38266155293 -73.648860264853 138.61309790868 c-12.989883493741 10.314841884362 -31.878196685723 8.2992980678776 -42.38570084666 -4.4608727114842c-10.507504160938 -12.767580866922 -8.5290107822563 -31.544742745495 4.3423113105145 -41.970735943267c0.47424560387872 -0.39273464071206 48.521253346841 -39.910731601418 51.337086619871 -95.864302771546 c1.83770171503 -36.731804037919 -16.220681670164 -74.071235255807 -53.64903393878 -111.02534192054c-11.811679571604 -11.700528258195 -11.811679571604 -30.596251537738 0 -42.244909183009c5.9132498733628 -5.7946884723931 13.664201461756 -8.7513134090745 21.378102612345 -8.7513134090745 c7.7509515883928 0 15.472262826543 2.9492148491208 21.378102612345 8.7513134090745C518.23188363847 104.15711701281 542.19610680947 156.99845140748 539.23948187278 211.49964541573z"/><glyph unicode="&#xE036;" glyph-name="star148" horiz-adv-x="512" d="M255.39471634162 259.62732851344c-37.366644343916 0 -67.651819759734 -30.264182918996 -67.651819759734 -67.630827262912s30.285175415818 -67.686807254438 67.651819759734 -67.686807254438c37.345651847094 0 67.665814757616 30.320162910522 67.665814757616 67.686807254438 S292.74036818871 259.62732851344 255.39471634162 259.62732851344zM486.45213136711 217.5233773866H411.97775014009c-14.106957864669 0 -25.554866131832 -11.42691577034 -25.554866131832 -25.526876136069s11.454905766103 -25.575858628654 25.554866131832 -25.575858628654h74.474381227022 c14.106957864669 0 25.554866131832 11.475898262926 25.554866131832 25.575858628654S500.55209173284 217.5233773866 486.45213136711 217.5233773866zM125.58411349069 191.99650125053c0 14.106957864669 -11.454905766103 25.526876136069 -25.554866131832 25.526876136069H25.554866131832 C11.454905766103 217.5233773866 0 206.1034591152 0 191.99650125053s11.454905766103 -25.575858628654 25.554866131832 -25.575858628654h74.474381227022C114.13620522352 166.42064262188 125.58411349069 177.88954338586 125.58411349069 191.99650125053zM256.00349874947 61.570118492804 c-14.106957864669 0 -25.547868632891 -11.468900763985 -25.547868632891 -25.575858628654v-74.474381227022c0 -14.106957864669 11.447908267162 -25.519878637128 25.547868632891 -25.519878637128c14.11395536361 0 25.547868632891 11.419918271399 25.547868632891 25.519878637128V35.99425986415 C281.55136738236 50.10821522776 270.11745411308 61.570118492804 256.00349874947 61.570118492804zM256.00349874947 322.42288400825c14.11395536361 0 25.547868632891 11.419918271399 25.547868632891 25.519878637128V422.42414137135 C281.55136738236 436.52410173707 270.11745411308 448 256.00349874947 448c-14.106957864669 0 -25.547868632891 -11.475898262926 -25.547868632891 -25.575858628654v-74.481378725963C230.45563011658 333.84280227965 241.8965408848 322.42288400825 256.00349874947 322.42288400825zM127.66237067611 99.727480217032l-52.684169525345 -52.628189533819c-9.9784334895926 -9.999425986415 -9.9784334895926 -26.156651040741 0 -36.156077027156c5.0032117426779 -4.9962142437371 11.524880755511 -7.4663313698424 18.081537263049 -7.4663313698424 c6.5286665117741 0 13.050335524607 2.4771146250461 18.053547267285 7.4663313698424l52.656179529582 52.684169525345c9.9714359906518 9.999425986415 9.9714359906518 26.156651040741 0 36.10009703563C153.79802922002 109.73390370239 137.6408041657 109.73390370239 127.66237067611 99.727480217032zM366.29107955555 276.72921592478c6.5356640107149 0 13.078325520371 2.4771146250461 18.053547267285 7.4733288687832l52.684169525345 52.684169525345c9.9784334895926 9.9504434938294 9.9784334895926 26.100671049215 0 36.10009703563c-9.999425986415 9.9504434938294 -26.156651040741 9.9504434938294 -36.128087031393 0 l-52.684169525345 -52.677172026405c-9.9714359906518 -9.9504434938294 -9.9714359906518 -26.100671049215 0 -36.107094534571C353.21275403518 279.20633054982 359.74142054695 276.72921592478 366.29107955555 276.72921592478zM112.42181798303 361.6298705736 c-9.9784334895926 9.999425986415 -26.156651040741 9.999425986415 -36.135084530334 0c-9.9714359906518 -9.9504434938294 -9.9714359906518 -26.156651040741 0 -36.107094534571l52.684169525345 -52.684169525345c4.9752217469147 -4.9472317511514 11.524880755511 -7.4663313698424 18.053547267285 -7.4663313698424 s13.078325520371 2.519099618691 18.053547267285 7.4663313698424c9.9784334895926 10.006423485356 9.9784334895926 26.156651040741 0 36.163074526097L112.42181798303 361.6298705736zM385.66015662371 88.412524429745c-9.9714359906518 9.9504434938294 -26.156651040741 9.9504434938294 -36.128087031393 0 c-9.9784334895926 -9.999425986415 -9.9784334895926 -26.1496535418 0 -36.156077027156l52.684169525345 -52.628189533819c4.9682242479739 -4.9962142437371 11.51788325657 -7.5223113613689 18.046549768345 -7.5223113613689s13.078325520371 2.5260971176318 18.053547267285 7.5223113613689 c9.999425986415 9.9504434938294 9.999425986415 26.107668548156 0 36.107094534571L385.66015662371 88.412524429745z"/><glyph unicode="&#xE037;" glyph-name="stop31" horiz-adv-x="512" d="M256.00349874947 448C114.84295261655 448 0 333.15704738345 0 191.99650125053s114.84295261655 -255.99650125053 256.00349874947 -255.99650125053S512.00699749894 50.835955117604 512.00699749894 191.99650125053S397.1640448824 448 256.00349874947 448zM256.00349874947 -8.7897333570228c-110.67944074676 0 -200.75824461179 90.050813869262 -200.75824461179 200.78623460755c0 110.67944074676 90.078803865025 200.74424961391 200.75824461179 200.74424961391c110.70743074253 0 200.75824461179 -90.057811368202 200.75824461179 -200.74424961391 C456.76174336126 81.261080512239 366.710929492 -8.7897333570228 256.00349874947 -8.7897333570228zM327.29401795843 272.9435689978H192.05335592942c-7.6062813486586 0 -13.792070412333 -6.2137790594377 -13.792070412333 -13.792070412333v-135.21267203324 c0 -7.627273845481 6.1857890636745 -13.841052904919 13.792070412333 -13.841052904919h135.240662029c7.5992838497178 0 13.792070412333 6.2137790594377 13.792070412333 13.841052904919V259.15849608441C341.08608837076 266.7367874373 334.89330180814 272.9435689978 327.29401795843 272.9435689978z"/><glyph unicode="&#xE038;" glyph-name="suitcase37" horiz-adv-x="574" d="M482.13614426451 313.38123764728h-78.342612879008c4.6046974827253 5.5381881138059 7.381635998713 12.629579126385 7.1855245215952 20.419126997503C409.36309733564 398.34457399378 355.31477424198 449.55320289877 291.79034457399 447.96077770458 c-64.136297476597 -1.5924251941963 -115.01545910003 -55.397570056229 -113.42303390584 -119.94962386432c0.13335580444009 -5.373454473027 1.7336254577211 -10.299774778225 4.2360079057439 -14.629916192986H91.835082504711C41.183410194733 313.38123764728 0 271.89973800732 0 220.92644287487V28.39988355881 c0 -50.973295132452 41.183410194733 -92.392039099726 91.835082504711 -92.392039099726h390.30106175979c50.659516769063 0 91.842926963796 41.418743967274 91.842926963796 92.392039099726V220.92644287487C573.9790712283 271.89973800732 532.79566103357 313.38123764728 482.13614426451 313.38123764728zM239.57762490616 329.54082336178c-0.76875699030167 30.562012594034 23.337265777015 56.056504619345 53.726700271185 56.817417150562c30.209011935222 1.004090762843 55.703503960533 -23.541221713218 56.46441649175 -54.103234307252c0.18042255894835 -7.19336898068 2.9181387795125 -13.70427002099 7.1698356034258 -18.873768557815 H235.38868375492C238.1185555164 318.12713539353 239.72666962877 323.63394567099 239.57762490616 329.54082336178z"/><glyph unicode="&#xE039;" glyph-name="suitcase38" horiz-adv-x="574" d="M482.45399073989 313.39453592126h-78.417808849232c4.6155827430779 5.5496887744151 7.4100512065741 12.661454021403 7.2138104436881 20.487535645295C409.65651733971 398.41388403397 355.72170606813 449.89176095422 291.98270628277 447.94505258639 C227.80412718854 446.35157759176 176.89142366541 392.56590929997 178.48489866004 328.03409683255c0.13344371876246 -5.36914727256 1.7347683439119 -10.306564866771 4.2388004783369 -14.639560911293H91.89562444424C41.210560206053 313.39453592126 0 271.94063716923 0 220.93373807991v-192.52788765216 c0 -50.951951675712 41.210560206053 -92.398000797228 91.89562444424 -92.398000797228h390.55836629565c50.692913868703 0 91.903474074755 41.446049121516 91.903474074755 92.398000797228V220.93373807991C574.35746481464 271.94063716923 533.14690460859 313.39453592126 482.45399073989 313.39453592126zM239.70416704995 329.50982736945c-0.73786526845123 30.582160488149 23.384049305492 56.093459663324 53.793517922301 56.854873823322c0.47097783092632 0 0.94195566185264 0.062797044123509 1.3893846012326 0.062797044123509c29.78934780609 0 54.382240210959 -24.035568638273 55.112255848895 -54.13890166498 c0.18839113237053 -7.229509704719 2.9436114432895 -13.736853402018 7.2373593352344 -18.894060650661H235.52816361574C238.26768466562 318.1435623831 239.86115966026 323.63045411339 239.70416704995 329.50982736945zM513.09109864165 28.405850427744 c0 -16.947352282832 -13.752552663048 -30.825499034127 -30.637107901757 -30.825499034127H91.89562444424c-16.876705608193 0 -30.637107901757 13.878146751295 -30.637107901757 30.825499034127V220.93373807991c0 17.00229969644 13.760402293564 30.817649403612 30.637107901757 30.817649403612h390.55836629565 c16.884555238708 0 30.637107901757 -13.815349707172 30.637107901757 -30.817649403612V28.405850427744z"/><glyph unicode="&#xE03A;" glyph-name="tablet75" horiz-adv-x="350" d="M264.52645245937 448H85.789337014309C38.472249176564 448 0 411.26313056076 0 366.05228990419v-348.16055979992c0 -45.154860665036 38.472249176564 -81.891730104279 85.789337014309 -81.891730104279h178.73711544507 c47.317087837745 0 85.79633451325 36.736869439243 85.79633451325 81.891730104279V366.05228990419C350.31578947368 411.26313056076 311.83654279818 448 264.52645245937 448zM141.9442660143 16.317292842597c0 13.68011042928 11.608850742801 24.785141248343 25.918736076754 24.785141248343 c14.323880331835 0 25.897743579931 -11.105030819063 25.897743579931 -24.785141248343c0 -13.687107928221 -11.573863248097 -24.736158755757 -25.897743579931 -24.736158755757C153.5531167571 -8.4258634121008 141.9442660143 2.6301849143763 141.9442660143 16.317292842597zM57.183561344285 79.62366576009 V333.94076726483h235.94866678511v-254.31710150474H57.183561344285z"/><glyph unicode="&#xE03B;" glyph-name="tag41" horiz-adv-x="512" d="M512.16836566919 228.84402060726L490.79294091856 388.87558917023c-1.5573824399868 11.715444480982 -10.36851912748 21.108845774416 -21.894552230626 23.430888961964L294.89948481859 447.44579633892c-9.0426394826263 1.8520223610654 -18.443056012277 -1.0031787789104 -25.002301874383 -7.5413789323687 L8.0955825934451 178.29222843363C2.904307793489 173.12199934232 0 166.10676312616 0 158.81793269758c0 -7.330921845884 2.904307793489 -14.346158062041 8.0955825934451 -19.516387153349l195.36731338376 -195.23402389565c5.1702290913077 -5.1702290913077 12.185465307465 -8.0675216485805 19.516387153349 -8.0675216485805 c7.3379370821002 0 14.360188534473 2.8972925572728 19.523402389565 8.0675216485805l261.79458511455 261.61218897293C510.40052614272 211.74788994848 513.29781869999 220.34856954949 512.16836566919 228.84402060726zM290.73243450619 272.52789652527 c0 27.913624904089 22.743395812781 50.60089882714 50.657020716869 50.60089882714c27.885563959224 0 50.628959772005 -22.680258686835 50.628959772005 -50.60089882714c0 -27.913624904089 -22.743395812781 -50.60089882714 -50.628959772005 -50.60089882714 C313.48284555519 221.92699769813 290.73243450619 244.62128685739 290.73243450619 272.52789652527z"/><glyph unicode="&#xE03C;" glyph-name="trash51" horiz-adv-x="608" d="M577.37107244871 351.56790444041H425.8135549208C425.18203064139 396.39781874838 390.30693326409 448 345.36899506622 448h-87.748636717736c-44.89639054791 0 -79.779797455206 -51.602181251623 -80.419631264607 -96.432095559595H30.628927551285 C13.710724487146 351.56790444041 0 337.55803687354 0 320.30745260971c0 -17.242274733835 13.710724487146 -31.185666060763 30.628927551285 -31.185666060763h52.782134510517V29.615164892236c0 -51.618800311607 41.190340171384 -93.623474422228 91.845235003895 -93.623474422228H427.77460399896 c50.654894832511 0 91.845235003895 42.004674110621 91.845235003895 93.623474422228V289.12178654895h57.751233445858c16.901584004155 0 30.628927551285 13.943391326928 30.628927551285 31.185666060763C608 337.55803687354 594.28096598286 351.56790444041 577.37107244871 351.56790444041zM257.62866787847 385.56219163854h87.748636717736c5.6089327447416 -0.49026226954038 18.497013762659 -18.289275512854 19.161776162036 -34.002596728123H238.49182030641C239.15658270579 367.27291612568 252.04466372371 385.08023889899 257.62866787847 385.56219163854zM458.40353155025 29.615164892236 c0 -17.18410802389 -13.743962607115 -31.185666060763 -30.628927551285 -31.185666060763H175.24798753571c-16.876655414178 0 -30.628927551285 14.001558036874 -30.628927551285 31.185666060763V289.12178654895h313.78447156583V29.615164892236zM240.49441703454 69.052194235264 c16.901584004155 0 30.628927551285 13.943391326928 30.628927551285 31.193975590756V191.31030901065c0 17.250584263828 -13.719034017138 31.185666060763 -30.628927551285 31.185666060763s-30.595689431317 -13.935081796936 -30.595689431317 -31.185666060763V100.24616982602 C209.90703713321 82.995585562192 223.59283303038 69.052194235264 240.49441703454 69.052194235264zM355.31550246689 69.052194235264c16.901584004155 0 30.595689431317 13.943391326928 30.595689431317 31.193975590756V191.31030901065 c0 17.250584263828 -13.68579589717 31.185666060763 -30.595689431317 31.185666060763c-16.909893534147 0 -30.628927551285 -13.935081796936 -30.628927551285 -31.185666060763V100.24616982602C324.68657491561 82.995585562192 338.40560893274 69.052194235264 355.31550246689 69.052194235264z"/><glyph unicode="&#xE03D;" glyph-name="triangle31" horiz-adv-x="537" d="M531.58122827012 -1.9472279527389L304.52466205981 425.95172901308C297.33035186174 439.50569124457 283.41445821371 448 268.27242956273 448s-29.065308654443 -8.494308755428 -36.244846141639 -22.048270986915L4.9636308553457 -1.9472279527389 c-6.9210150468139 -13.007371928964 -6.5886290520363 -28.777240792302 0.8568172309823 -41.555635702641c7.4232872167001 -12.726690422263 20.859067761155 -20.49713634462 35.388028910657 -20.49713634462h454.12051877606c14.528961149502 0 27.972128049396 7.7778322777962 35.388028910657 20.49713634462 C538.16247096672 -30.724468745041 538.50224331694 -14.954599881703 531.58122827012 -1.9472279527389z"/></font>
</defs>
</svg>
